  0
SECTION
  2
HEADER
  9
$ACADVER
  1
AC1015
  9
$ACADMAINTVER
 70
     6
  9
$DWGCODEPAGE
  3
ANSI_1252
  9
$INSBASE
 10
0.0
 20
0.0
 30
0.0
  9
$EXTMIN
 10
-210.0
 20
0.0
 30
0.0
  9
$EXTMAX
 10
0.0
 20
297.0000000000001
 30
0.0
  9
$LIMMIN
 10
0.0
 20
0.0
  9
$LIMMAX
 10
12.0
 20
9.0
  9
$ORTHOMODE
 70
     0
  9
$REGENMODE
 70
     1
  9
$FILLMODE
 70
     1
  9
$QTEXTMODE
 70
     0
  9
$MIRRTEXT
 70
     1
  9
$LTSCALE
 40
1.0
  9
$ATTMODE
 70
     1
  9
$TEXTSIZE
 40
0.2
  9
$TRACEWID
 40
0.05
  9
$TEXTSTYLE
  7
Standard
  9
$CLAYER
  8
0
  9
$CELTYPE
  6
ByLayer
  9
$CECOLOR
 62
   256
  9
$CELTSCALE
 40
1.0
  9
$DISPSILH
 70
     0
  9
$DIMSCALE
 40
1.0
  9
$DIMASZ
 40
0.18
  9
$DIMEXO
 40
0.0625
  9
$DIMDLI
 40
0.38
  9
$DIMRND
 40
0.0
  9
$DIMDLE
 40
0.0
  9
$DIMEXE
 40
0.18
  9
$DIMTP
 40
0.0
  9
$DIMTM
 40
0.0
  9
$DIMTXT
 40
0.18
  9
$DIMCEN
 40
0.09
  9
$DIMTSZ
 40
0.0
  9
$DIMTOL
 70
     0
  9
$DIMLIM
 70
     0
  9
$DIMTIH
 70
     1
  9
$DIMTOH
 70
     1
  9
$DIMSE1
 70
     0
  9
$DIMSE2
 70
     0
  9
$DIMTAD
 70
     0
  9
$DIMZIN
 70
     0
  9
$DIMBLK
  1

  9
$DIMASO
 70
     1
  9
$DIMSHO
 70
     1
  9
$DIMPOST
  1

  9
$DIMAPOST
  1

  9
$DIMALT
 70
     0
  9
$DIMALTD
 70
     2
  9
$DIMALTF
 40
25.4
  9
$DIMLFAC
 40
1.0
  9
$DIMTOFL
 70
     0
  9
$DIMTVP
 40
0.0
  9
$DIMTIX
 70
     0
  9
$DIMSOXD
 70
     0
  9
$DIMSAH
 70
     0
  9
$DIMBLK1
  1

  9
$DIMBLK2
  1

  9
$DIMSTYLE
  2
Standard
  9
$DIMCLRD
 70
     0
  9
$DIMCLRE
 70
     0
  9
$DIMCLRT
 70
     0
  9
$DIMTFAC
 40
1.0
  9
$DIMGAP
 40
0.09
  9
$DIMJUST
 70
     0
  9
$DIMSD1
 70
     0
  9
$DIMSD2
 70
     0
  9
$DIMTOLJ
 70
     1
  9
$DIMTZIN
 70
     0
  9
$DIMALTZ
 70
     0
  9
$DIMALTTZ
 70
     0
  9
$DIMUPT
 70
     0
  9
$DIMDEC
 70
     4
  9
$DIMTDEC
 70
     4
  9
$DIMALTU
 70
     2
  9
$DIMALTTD
 70
     2
  9
$DIMTXSTY
  7
Standard
  9
$DIMAUNIT
 70
     0
  9
$DIMADEC
 70
     0
  9
$DIMALTRND
 40
0.0
  9
$DIMAZIN
 70
     0
  9
$DIMDSEP
 70
    46
  9
$DIMATFIT
 70
     3
  9
$DIMFRAC
 70
     0
  9
$DIMLDRBLK
  1

  9
$DIMLUNIT
 70
     2
  9
$DIMLWD
 70
    -2
  9
$DIMLWE
 70
    -2
  9
$DIMTMOVE
 70
     0
  9
$LUNITS
 70
     2
  9
$LUPREC
 70
     4
  9
$SKETCHINC
 40
0.1
  9
$FILLETRAD
 40
0.5
  9
$AUNITS
 70
     0
  9
$AUPREC
 70
     0
  9
$MENU
  1
.
  9
$ELEVATION
 40
0.0
  9
$PELEVATION
 40
0.0
  9
$THICKNESS
 40
0.0
  9
$LIMCHECK
 70
     0
  9
$CHAMFERA
 40
0.5
  9
$CHAMFERB
 40
0.5
  9
$CHAMFERC
 40
1.0
  9
$CHAMFERD
 40
0.0
  9
$SKPOLY
 70
     0
  9
$TDCREATE
 40
2456997.491065776
  9
$TDUCREATE
 40
2456997.449399109
  9
$TDUPDATE
 40
2456997.491066134
  9
$TDUUPDATE
 40
2456997.449399468
  9
$TDINDWG
 40
0.0000000116
  9
$TDUSRTIMER
 40
0.0000000116
  9
$USRTIMER
 70
     1
  9
$ANGBASE
 50
0.0
  9
$ANGDIR
 70
     0
  9
$PDMODE
 70
     0
  9
$PDSIZE
 40
0.0
  9
$PLINEWID
 40
0.0
  9
$SPLFRAME
 70
     0
  9
$SPLINETYPE
 70
     6
  9
$SPLINESEGS
 70
     8
  9
$HANDSEED
  5
437
  9
$SURFTAB1
 70
     6
  9
$SURFTAB2
 70
     6
  9
$SURFTYPE
 70
     6
  9
$SURFU
 70
     6
  9
$SURFV
 70
     6
  9
$UCSBASE
  2

  9
$UCSNAME
  2

  9
$UCSORG
 10
0.0
 20
0.0
 30
0.0
  9
$UCSXDIR
 10
1.0
 20
0.0
 30
0.0
  9
$UCSYDIR
 10
0.0
 20
1.0
 30
0.0
  9
$UCSORTHOREF
  2

  9
$UCSORTHOVIEW
 70
     0
  9
$UCSORGTOP
 10
0.0
 20
0.0
 30
0.0
  9
$UCSORGBOTTOM
 10
0.0
 20
0.0
 30
0.0
  9
$UCSORGLEFT
 10
0.0
 20
0.0
 30
0.0
  9
$UCSORGRIGHT
 10
0.0
 20
0.0
 30
0.0
  9
$UCSORGFRONT
 10
0.0
 20
0.0
 30
0.0
  9
$UCSORGBACK
 10
0.0
 20
0.0
 30
0.0
  9
$PUCSBASE
  2

  9
$PUCSNAME
  2

  9
$PUCSORG
 10
0.0
 20
0.0
 30
0.0
  9
$PUCSXDIR
 10
1.0
 20
0.0
 30
0.0
  9
$PUCSYDIR
 10
0.0
 20
1.0
 30
0.0
  9
$PUCSORTHOREF
  2

  9
$PUCSORTHOVIEW
 70
     0
  9
$PUCSORGTOP
 10
0.0
 20
0.0
 30
0.0
  9
$PUCSORGBOTTOM
 10
0.0
 20
0.0
 30
0.0
  9
$PUCSORGLEFT
 10
0.0
 20
0.0
 30
0.0
  9
$PUCSORGRIGHT
 10
0.0
 20
0.0
 30
0.0
  9
$PUCSORGFRONT
 10
0.0
 20
0.0
 30
0.0
  9
$PUCSORGBACK
 10
0.0
 20
0.0
 30
0.0
  9
$USERI1
 70
     0
  9
$USERI2
 70
     0
  9
$USERI3
 70
     0
  9
$USERI4
 70
     0
  9
$USERI5
 70
     0
  9
$USERR1
 40
18.1
  9
$USERR2
 40
0.0
  9
$USERR3
 40
0.0
  9
$USERR4
 40
0.0
  9
$USERR5
 40
0.0
  9
$WORLDVIEW
 70
     1
  9
$SHADEDGE
 70
     3
  9
$SHADEDIF
 70
    70
  9
$TILEMODE
 70
     1
  9
$MAXACTVP
 70
    64
  9
$PINSBASE
 10
0.0
 20
0.0
 30
0.0
  9
$PLIMCHECK
 70
     0
  9
$PEXTMIN
 10
1.00000000000000E+20
 20
1.00000000000000E+20
 30
1.00000000000000E+20
  9
$PEXTMAX
 10
-1.00000000000000E+20
 20
-1.00000000000000E+20
 30
-1.00000000000000E+20
  9
$PLIMMIN
 10
0.0
 20
0.0
  9
$PLIMMAX
 10
12.0
 20
9.0
  9
$UNITMODE
 70
     0
  9
$VISRETAIN
 70
     1
  9
$PLINEGEN
 70
     0
  9
$PSLTSCALE
 70
     1
  9
$TREEDEPTH
 70
  3020
  9
$CMLSTYLE
  2
Standard
  9
$CMLJUST
 70
     0
  9
$CMLSCALE
 40
1.0
  9
$PROXYGRAPHICS
 70
     1
  9
$MEASUREMENT
 70
     1
  9
$CELWEIGHT
370
    -1
  9
$ENDCAPS
280
     0
  9
$JOINSTYLE
280
     0
  9
$LWDISPLAY
290
     0
  9
$INSUNITS
 70
     4
  9
$HYPERLINKBASE
  1

  9
$STYLESHEET
  1

  9
$XEDIT
290
     1
  9
$CEPSNTYPE
380
     0
  9
$PSTYLEMODE
290
     1
  9
$FINGERPRINTGUID
  2
{38946AE7-F862-4ADF-A276-6D64D7D292DA}
  9
$VERSIONGUID
  2
{FAEB1C32-E019-11D5-929B-00C0DF256EC4}
  9
$EXTNAMES
290
     1
  9
$PSVPSCALE
 40
0.0
  9
$OLESTARTUP
290
     0
  0
ENDSEC
  0
SECTION
  2
CLASSES
  0
CLASS
  1
ACDBDICTIONARYWDFLT
  2
AcDbDictionaryWithDefault
  3
ObjectDBX Classes
 90
        0
280
     0
281
     0
  0
CLASS
  1
VISUALSTYLE
  2
AcDbVisualStyle
  3
ObjectDBX Classes
 90
     4095
280
     0
281
     0
  0
CLASS
  1
MATERIAL
  2
AcDbMaterial
  3
ObjectDBX Classes
 90
     1153
280
     0
281
     0
  0
CLASS
  1
DICTIONARYVAR
  2
AcDbDictionaryVar
  3
ObjectDBX Classes
 90
        0
280
     0
281
     0
  0
CLASS
  1
ACDBPLACEHOLDER
  2
AcDbPlaceHolder
  3
ObjectDBX Classes
 90
        0
280
     0
281
     0
  0
CLASS
  1
LAYOUT
  2
AcDbLayout
  3
ObjectDBX Classes
 90
        0
280
     0
281
     0
  0
ENDSEC
  0
SECTION
  2
TABLES
  0
TABLE
  2
VPORT
  5
8
330
0
100
AcDbSymbolTable
 70
     1
  0
VPORT
  5
29
330
8
100
AcDbSymbolTableRecord
100
AcDbViewportTableRecord
  2
*Active
 70
     0
 10
0.0
 20
0.0
 11
1.0
 21
1.0
 12
-105.0
 22
148.5000000000001
 13
0.0
 23
0.0
 14
0.5
 24
0.5
 15
0.5
 25
0.5
 16
0.0
 26
0.0
 36
1.0
 17
0.0
 27
0.0
 37
0.0
 40
326.7000000000002
 41
1.60267857142857
 42
50.0
 43
0.0
 44
0.0
 50
0.0
 51
0.0
 71
     0
 72
   100
 73
     1
 74
     3
 75
     0
 76
     0
 77
     0
 78
     0
281
     0
 65
     1
110
0.0
120
0.0
130
0.0
111
1.0
121
0.0
131
0.0
112
0.0
122
1.0
132
0.0
 79
     0
146
0.0
  0
ENDTAB
  0
TABLE
  2
LTYPE
  5
5
330
0
100
AcDbSymbolTable
 70
     8
  0
LTYPE
  5
14
330
5
100
AcDbSymbolTableRecord
100
AcDbLinetypeTableRecord
  2
ByBlock
 70
     0
  3

 72
    65
 73
     0
 40
0.0
  0
LTYPE
  5
15
330
5
100
AcDbSymbolTableRecord
100
AcDbLinetypeTableRecord
  2
ByLayer
 70
     0
  3

 72
    65
 73
     0
 40
0.0
  0
LTYPE
  5
16
330
5
100
AcDbSymbolTableRecord
100
AcDbLinetypeTableRecord
  2
Continuous
 70
     0
  3
Solid line
 72
    65
 73
     0
 40
0.0
  0
LTYPE
  5
3F
330
5
100
AcDbSymbolTableRecord
100
AcDbLinetypeTableRecord
  2
DASHED
 70
     0
  3
Dashed
 72
    65
 73
     2
 40
15.0
 49
7.0
 74
     0
 49
-8.0
 74
     0
  0
LTYPE
  5
40
330
5
100
AcDbSymbolTableRecord
100
AcDbLinetypeTableRecord
  2
DOTTED
 70
     0
  3
Dotted
 72
    65
 73
     2
 40
1.0
 49
0.0
 74
     0
 49
-1.0
 74
     0
  0
LTYPE
  5
41
330
5
100
AcDbSymbolTableRecord
100
AcDbLinetypeTableRecord
  2
DOT_CENTER
 70
     0
  3
Dot_Center
 72
    65
 73
     4
 40
14.0
 49
12.0
 74
     0
 49
-1.0
 74
     0
 49
0.0
 74
     0
 49
-1.0
 74
     0
  0
LTYPE
  5
42
330
5
100
AcDbSymbolTableRecord
100
AcDbLinetypeTableRecord
  2
LONG_DASHED
 70
     0
  3
Long_Dashed
 72
    65
 73
     2
 40
15.0
 49
10.0
 74
     0
 49
-5.0
 74
     0
  0
LTYPE
  5
43
330
5
100
AcDbSymbolTableRecord
100
AcDbLinetypeTableRecord
  2
DASH_CENTER
 70
     0
  3
Dash_Center
 72
    65
 73
     4
 40
14.0
 49
11.0
 74
     0
 49
-1.0
 74
     0
 49
1.0
 74
     0
 49
-1.0
 74
     0
  0
LTYPE
  5
44
330
5
100
AcDbSymbolTableRecord
100
AcDbLinetypeTableRecord
  2
PHANTOM
 70
     0
  3
Phantom
 72
    65
 73
     6
 40
13.0
 49
10.0
 74
     0
 49
-1.0
 74
     0
 49
0.0
 74
     0
 49
-1.0
 74
     0
 49
0.0
 74
     0
 49
-1.0
 74
     0
  0
LTYPE
  5
45
330
5
100
AcDbSymbolTableRecord
100
AcDbLinetypeTableRecord
  2
CENTER_DASH_DASH
 70
     0
  3
Center_Dash_Dash
 72
    65
 73
     6
 40
14.0
 49
9.0
 74
     0
 49
-1.0
 74
     0
 49
1.0
 74
     0
 49
-1.0
 74
     0
 49
1.0
 74
     0
 49
-1.0
 74
     0
  0
ENDTAB
  0
TABLE
  2
LAYER
  5
2
330
0
100
AcDbSymbolTable
 70
     2
  0
LAYER
  5
10
330
2
100
AcDbSymbolTableRecord
100
AcDbLayerTableRecord
  2
0
 70
     0
 62
     7
  6
Continuous
370
    -3
390
F
  0
LAYER
  5
46
330
2
100
AcDbSymbolTableRecord
100
AcDbLayerTableRecord
  2
1
 70
     0
 62
     7
  6
Continuous
370
    -3
390
F
  0
ENDTAB
  0
TABLE
  2
STYLE
  5
3
330
0
100
AcDbSymbolTable
 70
     5
  0
STYLE
  5
11
330
3
100
AcDbSymbolTableRecord
100
AcDbTextStyleTableRecord
  2
Standard
 70
     0
 40
0.0
 41
1.0
 50
0.0
 71
     0
 42
0.2
  3
txt
  4

  0
STYLE
  5
3D4
330
3
100
AcDbSymbolTableRecord
100
AcDbTextStyleTableRecord
  2
CONVERTER_11
 70
     0
 40
0.0
 41
0.9
 50
0.0
 71
     0
 42
0.2
  3
txt.shx
  4

  0
STYLE
  5
3D6
330
3
100
AcDbSymbolTableRecord
100
AcDbTextStyleTableRecord
  2
CONVERTER_12
 70
     0
 40
0.0
 41
1.2
 50
0.0
 71
     0
 42
0.2
  3
ARIAL.TTF
  4

  0
STYLE
  5
3DF
330
3
100
AcDbSymbolTableRecord
100
AcDbTextStyleTableRecord
  2
CONVERTER_13
 70
     0
 40
0.0
 41
1.38
 50
0.0
 71
     0
 42
0.2
  3
ARIAL.TTF
  4

  0
STYLE
  5
3EC
330
3
100
AcDbSymbolTableRecord
100
AcDbTextStyleTableRecord
  2
CONVERTER_14
 70
     0
 40
0.0
 41
0.95
 50
0.0
 71
     0
 42
0.2
  3
simplex.shx
  4

  0
ENDTAB
  0
TABLE
  2
VIEW
  5
6
330
0
100
AcDbSymbolTable
 70
     0
  0
ENDTAB
  0
TABLE
  2
UCS
  5
7
330
0
100
AcDbSymbolTable
 70
     0
  0
ENDTAB
  0
TABLE
  2
APPID
  5
9
330
0
100
AcDbSymbolTable
 70
     1
  0
APPID
  5
12
330
9
100
AcDbSymbolTableRecord
100
AcDbRegAppTableRecord
  2
ACAD
 70
     0
  0
ENDTAB
  0
TABLE
  2
DIMSTYLE
  5
A
330
0
100
AcDbSymbolTable
 70
     4
100
AcDbDimStyleTable
  0
DIMSTYLE
105
27
330
A
100
AcDbSymbolTableRecord
100
AcDbDimStyleTableRecord
  2
Standard
 70
     0
178
     0
340
11
  0
DIMSTYLE
105
3F0
102
{ACAD_REACTORS
330
3F1
102
}
330
A
100
AcDbSymbolTableRecord
100
AcDbDimStyleTableRecord
  2
ME10_DIM_10
 70
     0
 41
3.0
 42
0.5
 44
1.0
 73
     0
 74
     0
 77
     1
 78
     8
140
3.0
147
2.0
172
     1
173
     1
174
     1
175
     1
176
     2
177
     2
271
     2
178
     4
271
     2
340
3EC
  0
DIMSTYLE
105
3FB
102
{ACAD_REACTORS
330
3FC
102
}
330
A
100
AcDbSymbolTableRecord
100
AcDbDimStyleTableRecord
  2
ME10_DIM_11
 70
     0
 41
3.0
 42
0.5
 44
1.0
 73
     0
 74
     0
 77
     1
 78
     8
140
3.0
147
2.0
172
     1
173
     1
174
     1
175
     1
176
     2
177
     2
271
     2
178
     4
271
     2
340
3EC
  0
DIMSTYLE
105
406
102
{ACAD_REACTORS
330
407
102
}
330
A
100
AcDbSymbolTableRecord
100
AcDbDimStyleTableRecord
  2
ME10_DIM_12
 70
     0
 41
3.0
 42
0.5
 44
1.0
 73
     0
 74
     0
 77
     1
 78
     8
140
3.0
147
2.0
172
     1
173
     1
174
     1
175
     1
176
     2
177
     2
271
     2
178
     4
271
     2
340
3EC
  0
ENDTAB
  0
TABLE
  2
BLOCK_RECORD
  5
1
330
0
100
AcDbSymbolTable
 70
     4
  0
BLOCK_RECORD
  5
1F
330
1
100
AcDbSymbolTableRecord
100
AcDbBlockTableRecord
  2
*Model_Space
340
22
  0
BLOCK_RECORD
  5
1B
330
1
100
AcDbSymbolTableRecord
100
AcDbBlockTableRecord
  2
*Paper_Space
340
1E
  0
BLOCK_RECORD
  5
23
330
1
100
AcDbSymbolTableRecord
100
AcDbBlockTableRecord
  2
*Paper_Space0
340
26
  0
BLOCK_RECORD
  5
3E6
330
1
100
AcDbSymbolTableRecord
100
AcDbBlockTableRecord
  2
*D1
340
0
  0
BLOCK_RECORD
  5
3F2
330
1
100
AcDbSymbolTableRecord
100
AcDbBlockTableRecord
  2
*D2
340
0
  0
BLOCK_RECORD
  5
3FD
330
1
100
AcDbSymbolTableRecord
100
AcDbBlockTableRecord
  2
*D3
340
0
  0
ENDTAB
  0
ENDSEC
  0
SECTION
  2
BLOCKS
  0
BLOCK
  5
20
330
1F
100
AcDbEntity
  8
0
100
AcDbBlockBegin
  2
*Model_Space
 70
     0
 10
0.0
 20
0.0
 30
0.0
  3
*Model_Space
  1

  0
ENDBLK
  5
21
330
1F
100
AcDbEntity
  8
0
100
AcDbBlockEnd
  0
BLOCK
  5
1C
330
1B
100
AcDbEntity
 67
     1
  8
0
100
AcDbBlockBegin
  2
*Paper_Space
 70
     0
 10
0.0
 20
0.0
 30
0.0
  3
*Paper_Space
  1

  0
ENDBLK
  5
1D
330
1B
100
AcDbEntity
 67
     1
  8
0
100
AcDbBlockEnd
  0
BLOCK
  5
24
330
23
100
AcDbEntity
  8
0
100
AcDbBlockBegin
  2
*Paper_Space0
 70
     0
 10
0.0
 20
0.0
 30
0.0
  3
*Paper_Space0
  1

  0
ENDBLK
  5
25
330
23
100
AcDbEntity
  8
0
100
AcDbBlockEnd
  0
BLOCK
  5
3EE
330
3E6
100
AcDbEntity
  8
0
100
AcDbBlockBegin
  2
*D1
 70
     1
 10
0.0
 20
0.0
 30
0.0
  3
*D1
  1

  0
LINE
  5
3E7
330
3E6
100
AcDbEntity
  8
1
  6
Continuous
 62
     2
100
AcDbLine
 10
-148.4440931545811
 20
189.2261016676459
 30
0.0
 11
-119.0440931545811
 21
189.2261016676459
 31
0.0
  0
LINE
  5
3E8
330
3E6
100
AcDbEntity
  8
1
  6
Continuous
 62
     2
100
AcDbLine
 10
-148.4440931545811
 20
177.9499244008371
 30
0.0
 11
-148.4440931545811
 21
190.2261016676459
 31
0.0
  0
LINE
  5
3E9
330
3E6
100
AcDbEntity
  8
1
  6
Continuous
 62
     2
100
AcDbLine
 10
-119.0440931545811
 20
177.9499244008371
 30
0.0
 11
-119.0440931545811
 21
190.2261016676459
 31
0.0
  0
SOLID
  5
3EA
330
3E6
100
AcDbEntity
  8
1
 62
     2
100
AcDbTrace
 10
-145.4440931545811
 20
189.6210591604081
 30
0.0
 11
-145.4440931545811
 21
188.8311441748837
 31
0.0
 12
-148.4440931545811
 22
189.2261016676459
 32
0.0
 13
-148.4440931545811
 23
189.2261016676459
 33
0.0
  0
SOLID
  5
3EB
330
3E6
100
AcDbEntity
  8
1
 62
     2
100
AcDbTrace
 10
-122.0440931545811
 20
188.8311441748837
 30
0.0
 11
-122.0440931545811
 21
189.6210591604081
 31
0.0
 12
-119.0440931545811
 22
189.2261016676459
 32
0.0
 13
-119.0440931545811
 23
189.2261016676459
 33
0.0
  0
MTEXT
  5
3ED
330
3E6
100
AcDbEntity
  8
1
 62
     4
100
AcDbMText
 10
-137.8690931545811
 20
191.5261016676459
 30
0.0
 40
3.0
 41
0.0
 71
     7
 72
     1
  1
29,4
  7
CONVERTER_14
 11
0.9999999999970619
 21
2.424068405545306E-6
 31
0.0
 73
     1
 44
0.60024009603842
  0
ENDBLK
  5
3EF
330
3E6
100
AcDbEntity
  8
0
100
AcDbBlockEnd
  0
BLOCK
  5
3F9
330
3F2
100
AcDbEntity
  8
0
100
AcDbBlockBegin
  2
*D2
 70
     1
 10
0.0
 20
0.0
 30
0.0
  3
*D2
  1

  0
LINE
  5
3F3
330
3F2
100
AcDbEntity
  8
1
  6
Continuous
 62
     2
100
AcDbLine
 10
-77.1440926140613
 20
189.2345010804189
 30
0.0
 11
-47.14409261406129
 21
189.2345010804189
 31
0.0
  0
LINE
  5
3F4
330
3F2
100
AcDbEntity
  8
1
  6
Continuous
 62
     2
100
AcDbLine
 10
-77.1440926140613
 20
177.9499244008372
 30
0.0
 11
-77.1440926140613
 21
190.2345010804189
 31
0.0
  0
LINE
  5
3F5
330
3F2
100
AcDbEntity
  8
1
  6
Continuous
 62
     2
100
AcDbLine
 10
-47.14409261406129
 20
177.9499244008372
 30
0.0
 11
-47.14409261406129
 21
190.2345010804189
 31
0.0
  0
SOLID
  5
3F6
330
3F2
100
AcDbEntity
  8
1
 62
     2
100
AcDbTrace
 10
-74.1440926140613
 20
189.6294585731811
 30
0.0
 11
-74.1440926140613
 21
188.8395435876567
 31
0.0
 12
-77.1440926140613
 22
189.2345010804189
 32
0.0
 13
-77.1440926140613
 23
189.2345010804189
 33
0.0
  0
SOLID
  5
3F7
330
3F2
100
AcDbEntity
  8
1
 62
     2
100
AcDbTrace
 10
-50.14409261406129
 20
188.8395435876567
 30
0.0
 11
-50.14409261406129
 21
189.6294585731811
 31
0.0
 12
-47.14409261406129
 22
189.2345010804189
 32
0.0
 13
-47.14409261406129
 23
189.2345010804189
 33
0.0
  0
MTEXT
  5
3F8
330
3F2
100
AcDbEntity
  8
1
 62
     4
100
AcDbMText
 10
-64.3940926140613
 20
191.2345010804189
 30
0.0
 40
3.0
 41
0.0
 71
     7
 72
     1
  1
30
  7
CONVERTER_14
 11
0.9999999999970619
 21
2.424068405545306E-6
 31
0.0
 73
     1
 44
0.60024009603842
  0
ENDBLK
  5
3FA
330
3F2
100
AcDbEntity
  8
0
100
AcDbBlockEnd
  0
BLOCK
  5
404
330
3FD
100
AcDbEntity
  8
0
100
AcDbBlockBegin
  2
*D3
 70
     1
 10
0.0
 20
0.0
 30
0.0
  3
*D3
  1

  0
LINE
  5
3FE
330
3FD
100
AcDbEntity
  8
1
  6
Continuous
 62
     2
100
AcDbLine
 10
-31.04191062442496
 20
177.4499244008372
 30
0.0
 11
-31.04191062442496
 21
143.4499244008372
 31
0.0
  0
LINE
  5
3FF
330
3FD
100
AcDbEntity
  8
1
  6
Continuous
 62
     2
100
AcDbLine
 10
-44.6440926140613
 20
177.4499244008372
 30
0.0
 11
-30.04191062442496
 21
177.4499244008372
 31
0.0
  0
LINE
  5
400
330
3FD
100
AcDbEntity
  8
1
  6
Continuous
 62
     2
100
AcDbLine
 10
-46.6440926140613
 20
143.4499244008372
 30
0.0
 11
-30.04191062442496
 21
143.4499244008372
 31
0.0
  0
SOLID
  5
401
330
3FD
100
AcDbEntity
  8
1
 62
     2
100
AcDbTrace
 10
-30.64695313166277
 20
174.4499244008372
 30
0.0
 11
-31.43686811718715
 21
174.4499244008372
 31
0.0
 12
-31.04191062442496
 22
177.4499244008372
 32
0.0
 13
-31.04191062442496
 23
177.4499244008372
 33
0.0
  0
SOLID
  5
402
330
3FD
100
AcDbEntity
  8
1
 62
     2
100
AcDbTrace
 10
-31.43686811718715
 20
146.4499244008372
 30
0.0
 11
-30.64695313166277
 21
146.4499244008372
 31
0.0
 12
-31.04191062442496
 22
143.4499244008372
 32
0.0
 13
-31.04191062442496
 23
143.4499244008372
 33
0.0
  0
MTEXT
  5
403
330
3FD
100
AcDbEntity
  8
1
 62
     4
100
AcDbMText
 10
-33.04191062442496
 20
158.1999244008372
 30
0.0
 40
3.0
 41
0.0
 71
     7
 72
     1
  1
34
  7
CONVERTER_14
 11
0.0
 21
1.0
 31
0.0
 73
     1
 44
0.60024009603842
  0
ENDBLK
  5
405
330
3FD
100
AcDbEntity
  8
0
100
AcDbBlockEnd
  0
ENDSEC
  0
SECTION
  2
ENTITIES
  0
LINE
  5
47
330
1F
100
AcDbEntity
  8
1
  6
Continuous
 62
     7
100
AcDbLine
 10
-189.0
 20
20.0
 30
0.0
 11
-5.0
 21
20.0
 31
0.0
  0
LINE
  5
48
330
1F
100
AcDbEntity
  8
1
  6
Continuous
 62
     7
100
AcDbLine
 10
-189.0
 20
4.99999999999989
 30
0.0
 11
-5.0
 21
4.99999999999989
 31
0.0
  0
LINE
  5
49
330
1F
100
AcDbEntity
  8
1
  6
Continuous
 62
     7
100
AcDbLine
 10
-163.9999999999998
 20
35.0
 30
0.0
 11
-163.9999999999998
 21
40.0
 31
0.0
  0
LINE
  5
4A
330
1F
100
AcDbEntity
  8
1
  6
Continuous
 62
     7
100
AcDbLine
 10
-182.0
 20
35.0
 30
0.0
 11
-182.0
 21
40.0
 31
0.0
  0
LINE
  5
4B
330
1F
100
AcDbEntity
  8
1
  6
Continuous
 62
     7
100
AcDbLine
 10
-189.0
 20
40.0
 30
0.0
 11
-5.0
 21
40.0
 31
0.0
  0
LINE
  5
4C
330
1F
100
AcDbEntity
  8
1
  6
Continuous
 62
     7
100
AcDbLine
 10
-163.9999999999998
 20
30.0
 30
0.0
 11
-163.9999999999998
 21
35.0
 31
0.0
  0
LINE
  5
4D
330
1F
100
AcDbEntity
  8
1
  6
Continuous
 62
     7
100
AcDbLine
 10
-182.0
 20
30.0
 30
0.0
 11
-182.0
 21
35.0
 31
0.0
  0
LINE
  5
4E
330
1F
100
AcDbEntity
  8
1
  6
Continuous
 62
     7
100
AcDbLine
 10
-189.0
 20
35.0
 30
0.0
 11
-5.0
 21
35.0
 31
0.0
  0
LINE
  5
4F
330
1F
100
AcDbEntity
  8
1
  6
Continuous
 62
     7
100
AcDbLine
 10
-163.9999999999998
 20
25.0
 30
0.0
 11
-163.9999999999998
 21
30.0
 31
0.0
  0
LINE
  5
50
330
1F
100
AcDbEntity
  8
1
  6
Continuous
 62
     7
100
AcDbLine
 10
-182.0
 20
25.0
 30
0.0
 11
-182.0
 21
30.0
 31
0.0
  0
LINE
  5
51
330
1F
100
AcDbEntity
  8
1
  6
Continuous
 62
     7
100
AcDbLine
 10
-189.0
 20
30.0
 30
0.0
 11
-5.0
 21
30.0
 31
0.0
  0
LINE
  5
52
330
1F
100
AcDbEntity
  8
1
  6
Continuous
 62
     7
100
AcDbLine
 10
-163.9999999999998
 20
20.0
 30
0.0
 11
-163.9999999999998
 21
25.0
 31
0.0
  0
LINE
  5
53
330
1F
100
AcDbEntity
  8
1
  6
Continuous
 62
     7
100
AcDbLine
 10
-182.0
 20
20.0
 30
0.0
 11
-182.0
 21
25.0
 31
0.0
  0
LINE
  5
54
330
1F
100
AcDbEntity
  8
1
  6
Continuous
 62
     7
100
AcDbLine
 10
-189.0
 20
25.0
 30
0.0
 11
-5.0
 21
25.0
 31
0.0
  0
LINE
  5
55
102
{ACAD_REACTORS
330
408
102
}
330
1F
100
AcDbEntity
  8
1
  6
Continuous
 62
     7
100
AcDbLine
 10
-14.15712516009424
 20
10.55800208038033
 30
0.0
 11
-15.4904584934275
 21
9.78877131114973
 31
0.0
  0
LINE
  5
56
102
{ACAD_REACTORS
330
408
102
}
330
1F
100
AcDbEntity
  8
1
  6
Continuous
 62
     7
100
AcDbLine
 10
-15.32369931125729
 20
10.65463653264794
 30
0.0
 11
-14.49027346242056
 21
11.13545913774624
 31
0.0
  0
LINE
  5
57
102
{ACAD_REACTORS
330
408
102
}
330
1F
100
AcDbEntity
  8
1
  6
Continuous
 62
     7
100
AcDbLine
 10
-15.32369931125729
 20
12.16666666666663
 30
0.0
 11
-15.32369931125729
 21
10.65463653264794
 31
0.0
  0
LINE
  5
58
102
{ACAD_REACTORS
330
408
102
}
330
1F
100
AcDbEntity
  8
1
  6
Continuous
 62
     7
100
AcDbLine
 10
-14.32369931125729
 20
12.16666666666663
 30
0.0
 11
-15.32369931125729
 21
12.16666666666663
 31
0.0
  0
LINE
  5
59
102
{ACAD_REACTORS
330
408
102
}
330
1F
100
AcDbEntity
  8
1
  6
Continuous
 62
     7
100
AcDbLine
 10
-15.32369931125729
 20
12.83333333333326
 30
0.0
 11
-14.32369931125729
 21
12.83333333333326
 31
0.0
  0
LINE
  5
5A
102
{ACAD_REACTORS
330
408
102
}
330
1F
100
AcDbEntity
  8
1
  6
Continuous
 62
     7
100
AcDbLine
 10
-15.32369931125729
 20
14.34536346735194
 30
0.0
 11
-15.32369931125729
 21
12.83333333333326
 31
0.0
  0
LINE
  5
5B
102
{ACAD_REACTORS
330
408
102
}
330
1F
100
AcDbEntity
  8
1
  6
Continuous
 62
     7
100
AcDbLine
 10
-14.49027346242056
 20
13.86454086225376
 30
0.0
 11
-15.32369931125729
 21
14.34536346735194
 31
0.0
  0
LINE
  5
5C
102
{ACAD_REACTORS
330
408
102
}
330
1F
100
AcDbEntity
  8
1
  6
Continuous
 62
     7
100
AcDbLine
 10
-15.4904584934275
 20
15.21122868885027
 30
0.0
 11
-14.15712516009424
 21
14.44199791961944
 31
0.0
  0
LINE
  5
5D
102
{ACAD_REACTORS
330
409
102
}
330
1F
100
AcDbEntity
  8
1
  6
Continuous
 62
     7
100
AcDbLine
 10
-22.65703264459066
 20
10.84673060906323
 30
0.0
 11
-22.65703264459066
 21
14.15326939093666
 31
0.0
  0
LINE
  5
5E
102
{ACAD_REACTORS
330
409
102
}
330
1F
100
AcDbEntity
  8
1
  6
Continuous
 62
     7
100
AcDbLine
 10
-21.99036597792403
 20
11.0392519172633
 30
0.0
 11
-21.99036597792403
 21
10.84673060906323
 31
0.0
  0
LINE
  5
5F
102
{ACAD_REACTORS
330
409
102
}
330
1F
100
AcDbEntity
  8
1
  6
Continuous
 62
     7
100
AcDbLine
 10
-21.99036597792403
 20
14.15326939093666
 30
0.0
 11
-21.99036597792403
 21
11.0392519172633
 31
0.0
  0
LINE
  5
60
102
{ACAD_REACTORS
330
40A
102
}
330
1F
100
AcDbEntity
  8
1
  6
Continuous
 62
     7
100
AcDbLine
 10
-18.82360679575393
 20
8.44261746499581
 30
0.0
 11
-20.99018094691698
 21
9.69256409066691
 31
0.0
  0
LINE
  5
61
102
{ACAD_REACTORS
330
40A
102
}
330
1F
100
AcDbEntity
  8
1
  6
Continuous
 62
     7
100
AcDbLine
 10
-20.65703264459066
 20
10.2700211480327
 30
0.0
 11
-18.4904584934275
 21
9.0200745223616
 31
0.0
  0
LINE
  5
62
102
{ACAD_REACTORS
330
40A
102
}
330
1F
100
AcDbEntity
  8
1
  6
Continuous
 62
     7
100
AcDbLine
 10
-20.65703264459066
 20
14.92250016016737
 30
0.0
 11
-20.65703264459066
 21
10.2700211480327
 31
0.0
  0
LINE
  5
63
102
{ACAD_REACTORS
330
40A
102
}
330
1F
100
AcDbEntity
  8
1
  6
Continuous
 62
     7
100
AcDbLine
 10
-21.32369931125734
 20
10.27002114803258
 30
0.0
 11
-21.32369931125734
 21
14.92250016016737
 31
0.0
  0
LINE
  5
64
102
{ACAD_REACTORS
330
40B
102
}
330
1F
100
AcDbEntity
  8
1
  6
Continuous
 62
     7
100
AcDbLine
 10
-17.15146632821407
 20
15.86370041827229
 30
0.0
 11
-18.32369931125734
 21
13.83333333333326
 31
0.0
  0
LINE
  5
65
102
{ACAD_REACTORS
330
40B
102
}
330
1F
100
AcDbEntity
  8
1
  6
Continuous
 62
     7
100
AcDbLine
 10
-16.65703264459066
 20
9.3082690706018
 30
0.0
 11
-16.65703264459066
 21
15.73121731203457
 31
0.0
  0
LINE
  5
66
102
{ACAD_REACTORS
330
40B
102
}
330
1F
100
AcDbEntity
  8
1
  6
Continuous
 62
     7
100
AcDbLine
 10
-17.32369931125734
 20
12.5
 30
0.0
 11
-17.32369931125734
 21
9.3082690706018
 31
0.0
  0
LINE
  5
67
102
{ACAD_REACTORS
330
40B
102
}
330
1F
100
AcDbEntity
  8
1
  6
Continuous
 62
     7
100
AcDbLine
 10
-19.32369931125734
 20
10.84758507263291
 30
0.0
 11
-19.32369931125734
 21
12.5
 31
0.0
  0
LINE
  5
68
102
{ACAD_REACTORS
330
40B
102
}
330
1F
100
AcDbEntity
  8
1
  6
Continuous
 62
     7
100
AcDbLine
 10
-19.99036597792403
 20
12.5
 30
0.0
 11
-19.99036597792403
 21
10.84758507263291
 31
0.0
  0
LINE
  5
69
102
{ACAD_REACTORS
330
40B
102
}
330
1F
100
AcDbEntity
  8
1
  6
Continuous
 62
     7
100
AcDbLine
 10
-19.49593229430056
 20
15.86370041827229
 30
0.0
 11
-18.32369931125734
 21
13.83333333333326
 31
0.0
  0
LINE
  5
6A
102
{ACAD_REACTORS
330
40B
102
}
330
1F
100
AcDbEntity
  8
1
  6
Continuous
 62
     7
100
AcDbLine
 10
-19.99036597792403
 20
12.5
 30
0.0
 11
-19.99036597792403
 21
15.73121731203457
 31
0.0
  0
LINE
  5
6B
330
1F
100
AcDbEntity
  8
1
  6
Continuous
 62
     7
100
AcDbLine
 10
-18.32369931125734
 20
7.5
 30
0.0
 11
-26.74013458639891
 21
12.35563573565855
 31
0.0
  0
LINE
  5
6C
330
1F
100
AcDbEntity
  8
1
  6
Continuous
 62
     7
100
AcDbLine
 10
-9.90726403611589
 20
12.35563573565855
 30
0.0
 11
-18.32369931125734
 21
7.5
 31
0.0
  0
LINE
  5
6D
330
1F
100
AcDbEntity
  8
1
  6
Continuous
 62
     7
100
AcDbLine
 10
-18.32369931125734
 20
17.5
 30
0.0
 11
-9.90726403611589
 21
12.64436426434133
 31
0.0
  0
LINE
  5
6E
330
1F
100
AcDbEntity
  8
1
  6
Continuous
 62
     7
100
AcDbLine
 10
-26.74013458639891
 20
12.64436426434133
 30
0.0
 11
-18.32369931125734
 21
17.5
 31
0.0
  0
LINE
  5
6F
102
{ACAD_REACTORS
330
40B
102
}
330
1F
100
AcDbEntity
  8
1
  6
Continuous
 62
     7
100
AcDbLine
 10
-19.32369931125734
 20
14.23205080756884
 30
0.0
 11
-19.32369931125734
 21
12.5
 31
0.0
  0
LINE
  5
70
102
{ACAD_REACTORS
330
40B
102
}
330
1F
100
AcDbEntity
  8
1
  6
Continuous
 62
     7
100
AcDbLine
 10
-18.46803687855484
 20
12.75
 30
0.0
 11
-19.32369931125734
 21
14.23205080756884
 31
0.0
  0
LINE
  5
71
102
{ACAD_REACTORS
330
40B
102
}
330
1F
100
AcDbEntity
  8
1
  6
Continuous
 62
     7
100
AcDbLine
 10
-17.32369931125734
 20
14.23205080756884
 30
0.0
 11
-18.17936174395996
 21
12.75
 31
0.0
  0
LINE
  5
72
102
{ACAD_REACTORS
330
40B
102
}
330
1F
100
AcDbEntity
  8
1
  6
Continuous
 62
     7
100
AcDbLine
 10
-17.32369931125734
 20
12.5
 30
0.0
 11
-17.32369931125734
 21
14.23205080756884
 31
0.0
  0
LINE
  5
73
102
{ACAD_REACTORS
330
408
102
}
330
1F
100
AcDbEntity
  8
1
  6
Continuous
 62
     7
100
AcDbLine
 10
-15.99036597792397
 20
10.07749983983263
 30
0.0
 11
-15.99036597792397
 21
14.92250016016737
 31
0.0
  0
LINE
  5
74
330
1F
100
AcDbEntity
  8
1
  6
Continuous
 62
     7
100
AcDbLine
 10
-189.0
 20
292.0000000000001
 30
0.0
 11
-189.0
 21
4.99999999999989
 31
0.0
  0
LINE
  5
75
330
1F
100
AcDbEntity
  8
1
  6
Continuous
 62
     7
100
AcDbLine
 10
-5.0
 20
292.0000000000001
 30
0.0
 11
-189.0
 21
292.0000000000001
 31
0.0
  0
LINE
  5
76
330
1F
100
AcDbEntity
  8
1
  6
Continuous
 62
     7
100
AcDbLine
 10
-5.0
 20
4.99999999999989
 30
0.0
 11
-5.0
 21
292.0000000000001
 31
0.0
  0
LINE
  5
77
330
1F
100
AcDbEntity
  8
1
  6
Continuous
 62
     7
100
AcDbLine
 10
0.0
 20
297.0000000000001
 30
0.0
 11
-210.0
 21
297.0000000000001
 31
0.0
  0
LINE
  5
78
330
1F
100
AcDbEntity
  8
1
  6
Continuous
 62
     7
100
AcDbLine
 10
-210.0
 20
297.0000000000001
 30
0.0
 11
-210.0
 21
0.0
 31
0.0
  0
LINE
  5
79
330
1F
100
AcDbEntity
  8
1
  6
Continuous
 62
     7
100
AcDbLine
 10
-210.0
 20
0.0
 30
0.0
 11
0.0
 21
0.0
 31
0.0
  0
LINE
  5
7A
330
1F
100
AcDbEntity
  8
1
  6
Continuous
 62
     7
100
AcDbLine
 10
0.0
 20
0.0
 30
0.0
 11
0.0
 21
297.0000000000001
 31
0.0
  0
LINE
  5
7B
330
1F
100
AcDbEntity
  8
1
  6
Continuous
 62
     7
100
AcDbLine
 10
-210.0
 20
148.4999999999998
 30
0.0
 11
-195.0
 21
148.4999999999998
 31
0.0
  0
LINE
  5
7C
330
1F
100
AcDbEntity
  8
1
  6
Continuous
 62
     7
100
AcDbLine
 10
-189.0
 20
9.99999999999986
 30
0.0
 11
-159.0
 21
9.99999999999986
 31
0.0
  0
LINE
  5
7D
330
1F
100
AcDbEntity
  8
1
  6
Continuous
 62
     7
100
AcDbLine
 10
-159.0
 20
20.0
 30
0.0
 11
-159.0
 21
5.0
 31
0.0
  0
LINE
  5
7E
330
1F
100
AcDbEntity
  8
1
  6
Continuous
 62
     7
100
AcDbLine
 10
-31.64739862251466
 20
20.0
 30
0.0
 11
-31.64739862251466
 21
5.0
 31
0.0
  0
LINE
  5
7F
330
1F
100
AcDbEntity
  8
1
  6
Continuous
 62
     7
100
AcDbLine
 10
-49.00000000000003
 20
20.0
 30
0.0
 11
-49.00000000000003
 21
5.0
 31
0.0
  0
LINE
  5
80
330
1F
100
AcDbEntity
  8
1
  6
Continuous
 62
     7
100
AcDbLine
 10
-189.0
 20
20.0
 30
0.0
 11
-189.0
 21
4.99999999999989
 31
0.0
  0
LINE
  5
81
330
1F
100
AcDbEntity
  8
1
  6
Continuous
 62
     7
100
AcDbLine
 10
-189.0
 20
14.99999999999989
 30
0.0
 11
-159.0
 21
14.99999999999989
 31
0.0
  0
LINE
  5
82
330
1F
100
AcDbEntity
  8
0
  6
Continuous
 62
     7
100
AcDbLine
 10
-131.7046466583457
 20
168.6999244008372
 30
0.0
 11
-133.7440447025145
 21
167.5238768482216
 31
0.0
  0
LINE
  5
83
330
1F
100
AcDbEntity
  8
0
  6
Continuous
 62
     7
100
AcDbLine
 10
-144.1940931545811
 20
174.9499244008372
 30
0.0
 11
-144.1940931545811
 21
177.4499244008372
 31
0.0
  0
LINE
  5
84
330
1F
100
AcDbEntity
  8
0
  6
Continuous
 62
     7
100
AcDbLine
 10
-144.1940931545811
 20
177.4499244008372
 30
0.0
 11
-146.4440931545811
 21
177.4499244008372
 31
0.0
  0
LINE
  5
85
330
1F
100
AcDbEntity
  8
0
  6
Continuous
 62
     7
100
AcDbLine
 10
-133.7440447025145
 20
169.7854325075038
 30
0.0
 11
-135.6264372169515
 21
168.6999244008372
 31
0.0
  0
LINE
  5
86
330
1F
100
AcDbEntity
  8
0
  6
Continuous
 62
     7
100
AcDbLine
 10
-135.7834427466834
 20
168.6999244008372
 30
0.0
 11
-133.7440447025145
 21
169.8759719534527
 31
0.0
  0
LINE
  5
87
330
1F
100
AcDbEntity
  8
0
  6
Continuous
 62
     7
100
AcDbLine
 10
-131.8616521880776
 20
168.6999244008372
 30
0.0
 11
-133.7440447025145
 21
169.7854325075038
 31
0.0
  0
LINE
  5
88
330
1F
100
AcDbEntity
  8
0
  6
Continuous
 62
     7
100
AcDbLine
 10
-133.7440447025145
 20
167.6144162941705
 30
0.0
 11
-131.8616521880776
 21
168.6999244008372
 31
0.0
  0
LINE
  5
89
330
1F
100
AcDbEntity
  8
0
  6
Continuous
 62
     7
100
AcDbLine
 10
-135.6264372169515
 20
168.6999244008372
 30
0.0
 11
-133.7440447025145
 21
167.6144162941705
 31
0.0
  0
LINE
  5
8A
330
1F
100
AcDbEntity
  8
0
  6
Continuous
 62
     7
100
AcDbLine
 10
-133.7440447025145
 20
167.5238768482216
 30
0.0
 11
-135.7834427466834
 21
168.6999244008372
 31
0.0
  0
LINE
  5
8B
330
1F
100
AcDbEntity
  8
0
  6
Continuous
 62
     7
100
AcDbLine
 10
-133.7832263724971
 20
167.7818740685114
 30
0.0
 11
-134.4106905661688
 21
168.1437100655824
 31
0.0
  0
LINE
  5
8C
330
1F
100
AcDbEntity
  8
0
  6
Continuous
 62
     7
100
AcDbLine
 10
-132.6459824024263
 20
168.6214917341705
 30
0.0
 11
-133.0381475096007
 21
168.6214917341705
 31
0.0
  0
LINE
  5
8D
330
1F
100
AcDbEntity
  8
0
  6
Continuous
 62
     7
100
AcDbLine
 10
-133.0381475096007
 20
168.3474238395865
 30
0.0
 11
-132.6851640724089
 21
168.5509767009861
 31
0.0
  0
LINE
  5
8E
330
1F
100
AcDbEntity
  8
0
  6
Continuous
 62
     7
100
AcDbLine
 10
-133.0381475096007
 20
168.6214917341705
 30
0.0
 11
-133.0381475096007
 21
168.3474238395865
 31
0.0
  0
LINE
  5
8F
330
1F
100
AcDbEntity
  8
0
  6
Continuous
 62
     7
100
AcDbLine
 10
-132.6068007324437
 20
168.4150871307336
 30
0.0
 11
-133.0773986617922
 21
168.1437097585266
 31
0.0
  0
LINE
  5
90
330
1F
100
AcDbEntity
  8
0
  6
Continuous
 62
     7
100
AcDbLine
 10
-134.2930758525586
 20
168.2569648306976
 30
0.0
 11
-133.7048630325319
 21
167.9177636387639
 31
0.0
  0
LINE
  5
91
330
1F
100
AcDbEntity
  8
0
  6
Continuous
 62
     7
100
AcDbLine
 10
-133.0381475096007
 20
169.0524249620878
 30
0.0
 11
-133.0381475096007
 21
168.7783570675038
 31
0.0
  0
LINE
  5
92
330
1F
100
AcDbEntity
  8
0
  6
Continuous
 62
     7
100
AcDbLine
 10
-134.4499418510034
 20
168.2116548891932
 30
0.0
 11
-134.4499418954284
 21
169.1881939124811
 31
0.0
  0
LINE
  5
93
330
1F
100
AcDbEntity
  8
0
  6
Continuous
 62
     7
100
AcDbLine
 10
-134.2930758525586
 20
169.1881939124811
 30
0.0
 11
-134.2930758525586
 21
168.2569648306976
 31
0.0
  0
LINE
  5
94
330
1F
100
AcDbEntity
  8
0
  6
Continuous
 62
     7
100
AcDbLine
 10
-134.1362092632917
 20
168.392572906971
 30
0.0
 11
-134.1362092632917
 21
169.3691119302589
 31
0.0
  0
LINE
  5
95
330
1F
100
AcDbEntity
  8
0
  6
Continuous
 62
     7
100
AcDbLine
 10
-133.9793437668191
 20
169.1591526334084
 30
0.0
 11
-133.9793437668191
 21
168.392572906971
 31
0.0
  0
LINE
  5
96
330
1F
100
AcDbEntity
  8
0
  6
Continuous
 62
     7
100
AcDbLine
 10
-134.6068079382982
 20
169.0072758947033
 30
0.0
 11
-134.6068079382982
 21
168.392572906971
 31
0.0
  0
LINE
  5
97
330
1F
100
AcDbEntity
  8
0
  6
Continuous
 62
     7
100
AcDbLine
 10
-132.6851640724089
 20
168.8488721006882
 30
0.0
 11
-133.0381475096007
 21
169.0524249620878
 31
0.0
  0
LINE
  5
98
330
1F
100
AcDbEntity
  8
0
  6
Continuous
 62
     7
100
AcDbLine
 10
-133.7440447025145
 20
169.1274215061575
 30
0.0
 11
-133.489536374551
 21
169.4205351463773
 31
0.0
  0
LINE
  5
99
330
1F
100
AcDbEntity
  8
0
  6
Continuous
 62
     7
100
AcDbLine
 10
-133.5087456382099
 20
169.1591526334084
 30
0.0
 11
-133.7440447025145
 21
168.8881628008371
 31
0.0
  0
LINE
  5
9A
330
1F
100
AcDbEntity
  8
0
  6
Continuous
 62
     7
100
AcDbLine
 10
-133.5087456382099
 20
168.0307368714154
 30
0.0
 11
-133.5087456382099
 21
169.1591526334084
 31
0.0
  0
LINE
  5
9B
330
1F
100
AcDbEntity
  8
0
  6
Continuous
 62
     7
100
AcDbLine
 10
-133.0773988610529
 20
169.2561386976073
 30
0.0
 11
-132.6068007324437
 21
168.9847616709407
 31
0.0
  0
LINE
  5
9C
330
1F
100
AcDbEntity
  8
0
  6
Continuous
 62
     7
100
AcDbLine
 10
-133.0381475096007
 20
168.7783570675038
 30
0.0
 11
-132.6459824024263
 21
168.7783570675038
 31
0.0
  0
LINE
  5
9D
330
1F
100
AcDbEntity
  8
0
  6
Continuous
 62
     7
100
AcDbLine
 10
-133.9985534430519
 20
169.4205347881416
 30
0.0
 11
-133.7440447025145
 21
169.1274215061575
 31
0.0
  0
LINE
  5
9E
330
1F
100
AcDbEntity
  8
0
  6
Continuous
 62
     7
100
AcDbLine
 10
-133.7440447025145
 20
168.8881628008371
 30
0.0
 11
-133.9793437668191
 21
169.1591526334084
 31
0.0
  0
LINE
  5
9F
330
1F
100
AcDbEntity
  8
0
  6
Continuous
 62
     7
100
AcDbLine
 10
-133.3518795953401
 20
169.3691119302589
 30
0.0
 11
-133.3518795953401
 21
168.0307368714154
 31
0.0
  0
LINE
  5
A0
330
1F
100
AcDbEntity
  8
0
  6
Continuous
 62
     7
100
AcDbLine
 10
-133.1950135524704
 20
168.2116548891932
 30
0.0
 11
-133.1950135524704
 21
169.1881939124811
 31
0.0
  0
LINE
  5
A1
330
1F
100
AcDbEntity
  8
0
  6
Continuous
 62
     7
100
AcDbLine
 10
-134.7636739811679
 20
168.392572906971
 30
0.0
 11
-134.7636739811678
 21
169.0072758947033
 31
0.0
  0
LINE
  5
A2
330
1F
100
AcDbEntity
  8
0
  6
Continuous
 62
     7
100
AcDbLine
 10
-119.0440931545811
 20
177.4499244008372
 30
0.0
 11
-119.0440931545811
 21
167.9499244008372
 31
0.0
  0
LINE
  5
A3
330
1F
100
AcDbEntity
  8
0
  6
Continuous
 62
     7
100
AcDbLine
 10
-123.2940931545811
 20
177.4499244008372
 30
0.0
 11
-121.0440931545811
 21
177.4499244008372
 31
0.0
  0
LINE
  5
A4
330
1F
100
AcDbEntity
  8
0
  6
Continuous
 62
     7
100
AcDbLine
 10
-123.2940931545811
 20
177.4499244008372
 30
0.0
 11
-129.4940931545811
 21
177.4499244008372
 31
0.0
  0
LINE
  5
A5
330
1F
100
AcDbEntity
  8
0
  6
Continuous
 62
     7
100
AcDbLine
 10
-121.0440931545811
 20
177.4499244008372
 30
0.0
 11
-121.0440931545811
 21
160.4499244008372
 31
0.0
  0
LINE
  5
A6
330
1F
100
AcDbEntity
  8
0
  6
Continuous
 62
     7
100
AcDbLine
 10
-129.4940931545811
 20
177.4499244008372
 30
0.0
 11
-129.4940931545811
 21
174.9499244008372
 31
0.0
  0
LINE
  5
A7
330
1F
100
AcDbEntity
  8
0
  6
Continuous
 62
     7
100
AcDbLine
 10
-128.9940931545811
 20
174.4499244008372
 30
0.0
 11
-123.7940931545811
 21
174.4499244008372
 31
0.0
  0
LINE
  5
A8
330
1F
100
AcDbEntity
  8
0
  6
Continuous
 62
     7
100
AcDbLine
 10
-123.2940931545811
 20
177.4499244008372
 30
0.0
 11
-123.2940931545811
 21
174.9499244008372
 31
0.0
  0
LINE
  5
A9
330
1F
100
AcDbEntity
  8
0
  6
Continuous
 62
     7
100
AcDbLine
 10
-119.0440931545811
 20
160.4499244008372
 30
0.0
 11
-121.0440931545811
 21
160.4499244008372
 31
0.0
  0
LINE
  5
AA
330
1F
100
AcDbEntity
  8
0
  6
Continuous
 62
     7
100
AcDbLine
 10
-119.0440931545811
 20
145.4499244008372
 30
0.0
 11
-119.0440931545811
 21
160.4499244008372
 31
0.0
  0
LINE
  5
AB
330
1F
100
AcDbEntity
  8
0
  6
Continuous
 62
     7
100
AcDbLine
 10
-122.0440931545811
 20
145.4499244008372
 30
0.0
 11
-121.844093154581
 21
145.4499244008372
 31
0.0
  0
LINE
  5
AC
330
1F
100
AcDbEntity
  8
0
  6
Continuous
 62
     7
100
AcDbLine
 10
-119.0440931545811
 20
177.4499244008372
 30
0.0
 11
-121.0440931545811
 21
177.4499244008372
 31
0.0
  0
LINE
  5
AD
330
1F
100
AcDbEntity
  8
0
  6
Continuous
 62
     7
100
AcDbLine
 10
-119.0440931545811
 20
160.4499244008372
 30
0.0
 11
-119.0440931545811
 21
167.9499244008372
 31
0.0
  0
LINE
  5
AE
330
1F
100
AcDbEntity
  8
0
  6
Continuous
 62
     7
100
AcDbLine
 10
-118.1440931545811
 20
167.9499244008372
 30
0.0
 11
-118.1440931545811
 21
177.4499244008372
 31
0.0
  0
LINE
  5
AF
330
1F
100
AcDbEntity
  8
0
  6
Continuous
 62
     7
100
AcDbLine
 10
-137.9940931545811
 20
174.9499244008372
 30
0.0
 11
-137.9940931545811
 21
177.4499244008372
 31
0.0
  0
LINE
  5
B0
330
1F
100
AcDbEntity
  8
0
  6
Continuous
 62
     7
100
AcDbLine
 10
-143.6940931545811
 20
174.4499244008372
 30
0.0
 11
-138.4940931545811
 21
174.4499244008372
 31
0.0
  0
LINE
  5
B1
330
1F
100
AcDbEntity
  8
0
  6
Continuous
 62
     7
100
AcDbLine
 10
-119.0440931545811
 20
177.4499244008372
 30
0.0
 11
-118.1440931545811
 21
177.4499244008372
 31
0.0
  0
LINE
  5
B2
330
1F
100
AcDbEntity
  8
0
  6
Continuous
 62
     7
100
AcDbLine
 10
-137.9940931545811
 20
177.4499244008372
 30
0.0
 11
-144.1940931545811
 21
177.4499244008372
 31
0.0
  0
LINE
  5
B3
330
1F
100
AcDbEntity
  8
0
  6
Continuous
 62
     7
100
AcDbLine
 10
-129.4940931545811
 20
177.4499244008372
 30
0.0
 11
-137.9940931545811
 21
177.4499244008372
 31
0.0
  0
LINE
  5
B4
330
1F
100
AcDbEntity
  8
0
  6
Continuous
 62
     7
100
AcDbLine
 10
-135.7440931545811
 20
150.4499244008372
 30
0.0
 11
-135.7440931545811
 21
162.9499244008372
 31
0.0
  0
LINE
  5
B5
330
1F
100
AcDbEntity
  8
0
  6
Continuous
 62
     7
100
AcDbLine
 10
-134.5440931545811
 20
162.9499244008372
 30
0.0
 11
-134.5440931545811
 21
150.4499244008372
 31
0.0
  0
LINE
  5
B6
330
1F
100
AcDbEntity
  8
0
  6
Continuous
 62
     7
100
AcDbLine
 10
-132.5440931545811
 20
150.4499244008372
 30
0.0
 11
-134.5440931545811
 21
150.4499244008372
 31
0.0
  0
LINE
  5
B7
330
1F
100
AcDbEntity
  8
0
  6
Continuous
 62
     7
100
AcDbLine
 10
-134.5440931545811
 20
162.9499244008372
 30
0.0
 11
-135.7440931545811
 21
162.9499244008372
 31
0.0
  0
LINE
  5
B8
330
1F
100
AcDbEntity
  8
0
  6
Continuous
 62
     7
100
AcDbLine
 10
-134.5440931545811
 20
150.4499244008372
 30
0.0
 11
-134.9440931545811
 21
150.4499244008372
 31
0.0
  0
LINE
  5
B9
330
1F
100
AcDbEntity
  8
0
  6
Continuous
 62
     7
100
AcDbLine
 10
-134.9440931545811
 20
150.4499244008372
 30
0.0
 11
-135.1441594692698
 21
150.4499244008372
 31
0.0
  0
LINE
  5
BA
330
1F
100
AcDbEntity
  8
0
  6
Continuous
 62
     7
100
AcDbLine
 10
-135.1441594692698
 20
150.4499244008372
 30
0.0
 11
-135.7440931545811
 21
150.4499244008372
 31
0.0
  0
LINE
  5
BB
330
1F
100
AcDbEntity
  8
0
  6
Continuous
 62
     2
100
AcDbLine
 10
-135.1441594692698
 20
143.4499244008372
 30
0.0
 11
-135.1441594692698
 21
150.4499244008372
 31
0.0
  0
LINE
  5
BC
330
1F
100
AcDbEntity
  8
0
  6
Continuous
 62
     7
100
AcDbLine
 10
-135.1441594692698
 20
143.4499244008372
 30
0.0
 11
-134.9440931545811
 21
143.4499244008372
 31
0.0
  0
LINE
  5
BD
330
1F
100
AcDbEntity
  8
0
  6
Continuous
 62
     7
100
AcDbLine
 10
-134.9440931545811
 20
143.4499244008372
 30
0.0
 11
-134.9440931545811
 21
150.4499244008372
 31
0.0
  0
LINE
  5
BE
330
1F
100
AcDbEntity
  8
0
  6
Continuous
 62
     7
100
AcDbLine
 10
-131.7440931545811
 20
162.9499244008372
 30
0.0
 11
-131.7440931545811
 21
143.4499244008372
 31
0.0
  0
LINE
  5
BF
330
1F
100
AcDbEntity
  8
0
  6
Continuous
 62
     2
100
AcDbLine
 10
-140.4705292118432
 20
143.4499244008372
 30
0.0
 11
-140.4705292118432
 21
150.4499244008372
 31
0.0
  0
LINE
  5
C0
330
1F
100
AcDbEntity
  8
0
  6
Continuous
 62
     7
100
AcDbLine
 10
-141.7704628971545
 20
143.4499244008372
 30
0.0
 11
-140.4705292118432
 21
143.4499244008372
 31
0.0
  0
LINE
  5
C1
330
1F
100
AcDbEntity
  8
0
  6
Continuous
 62
     7
100
AcDbLine
 10
-131.7440931545811
 20
143.4499244008372
 30
0.0
 11
-132.5440931545811
 21
143.4499244008372
 31
0.0
  0
LINE
  5
C2
330
1F
100
AcDbEntity
  8
0
  6
Continuous
 62
     7
100
AcDbLine
 10
-135.1441594692698
 20
143.4499244008372
 30
0.0
 11
-140.4705292118432
 21
143.4499244008372
 31
0.0
  0
LINE
  5
C3
330
1F
100
AcDbEntity
  8
0
  6
Continuous
 62
     7
100
AcDbLine
 10
-132.5440931545811
 20
143.4499244008372
 30
0.0
 11
-132.5440931545811
 21
150.4499244008372
 31
0.0
  0
LINE
  5
C4
330
1F
100
AcDbEntity
  8
0
  6
Continuous
 62
     2
100
AcDbLine
 10
-141.7704628971545
 20
143.4499244008372
 30
0.0
 11
-141.7704628971545
 21
150.4499244008372
 31
0.0
  0
LINE
  5
C5
330
1F
100
AcDbEntity
  8
0
  6
Continuous
 62
     7
100
AcDbLine
 10
-135.7440931545811
 20
150.4499244008372
 30
0.0
 11
-140.4705292118432
 21
150.4499244008372
 31
0.0
  0
LINE
  5
C6
330
1F
100
AcDbEntity
  8
0
  6
Continuous
 62
     7
100
AcDbLine
 10
-140.4705292118432
 20
150.4499244008372
 30
0.0
 11
-141.7704628971545
 21
150.4499244008372
 31
0.0
  0
LINE
  5
C7
330
1F
100
AcDbEntity
  8
0
  6
Continuous
 62
     7
100
AcDbLine
 10
-122.0440931545811
 20
145.4499244008372
 30
0.0
 11
-122.0440931545811
 21
143.4499244008372
 31
0.0
  0
LINE
  5
C8
330
1F
100
AcDbEntity
  8
0
  6
Continuous
 62
     7
100
AcDbLine
 10
-131.7440931545811
 20
143.4499244008372
 30
0.0
 11
-122.0440931545811
 21
143.4499244008372
 31
0.0
  0
LINE
  5
C9
330
1F
100
AcDbEntity
  8
0
  6
Continuous
 62
     2
100
AcDbLine
 10
-121.844093154581
 20
143.4499244008372
 30
0.0
 11
-121.844093154581
 21
145.4499244008372
 31
0.0
  0
LINE
  5
CA
330
1F
100
AcDbEntity
  8
0
  6
Continuous
 62
     7
100
AcDbLine
 10
-121.844093154581
 20
145.4499244008372
 30
0.0
 11
-119.0440931545811
 21
145.4499244008372
 31
0.0
  0
LINE
  5
CB
330
1F
100
AcDbEntity
  8
0
  6
Continuous
 62
     7
100
AcDbLine
 10
-121.844093154581
 20
143.4499244008372
 30
0.0
 11
-122.0440931545811
 21
143.4499244008372
 31
0.0
  0
LINE
  5
CC
330
1F
100
AcDbEntity
  8
0
  6
Continuous
 62
     7
100
AcDbLine
 10
-119.0440931545811
 20
143.4499244008372
 30
0.0
 11
-121.844093154581
 21
143.4499244008372
 31
0.0
  0
LINE
  5
CD
330
1F
100
AcDbEntity
  8
0
  6
Continuous
 62
     7
100
AcDbLine
 10
-119.0440931545811
 20
143.4499244008372
 30
0.0
 11
-119.0440931545811
 21
145.4499244008372
 31
0.0
  0
LINE
  5
CE
330
1F
100
AcDbEntity
  8
0
  6
Continuous
 62
     7
100
AcDbLine
 10
-141.7704628971545
 20
143.4499244008372
 30
0.0
 11
-148.4440931545811
 21
143.4499244008372
 31
0.0
  0
LINE
  5
CF
330
1F
100
AcDbEntity
  8
0
  6
Continuous
 62
     7
100
AcDbLine
 10
-148.4440931545811
 20
150.4499244008372
 30
0.0
 11
-148.4440931545811
 21
143.4499244008372
 31
0.0
  0
LINE
  5
D0
330
1F
100
AcDbEntity
  8
0
  6
Continuous
 62
     7
100
AcDbLine
 10
-148.4440931545811
 20
150.4499244008372
 30
0.0
 11
-148.4440931545811
 21
160.4499244008372
 31
0.0
  0
LINE
  5
D1
330
1F
100
AcDbEntity
  8
0
  6
Continuous
 62
     7
100
AcDbLine
 10
-148.4440931545811
 20
150.4499244008372
 30
0.0
 11
-141.7704628971545
 21
150.4499244008372
 31
0.0
  0
LINE
  5
D2
330
1F
100
AcDbEntity
  8
0
  6
Continuous
 62
     7
100
AcDbLine
 10
-146.4440931545811
 20
177.4499244008372
 30
0.0
 11
-148.4440931545811
 21
177.4499244008372
 31
0.0
  0
LINE
  5
D3
330
1F
100
AcDbEntity
  8
0
  6
Continuous
 62
     7
100
AcDbLine
 10
-148.4440931545811
 20
177.4499244008372
 30
0.0
 11
-148.4440931545811
 21
160.4499244008372
 31
0.0
  0
LINE
  5
D4
330
1F
100
AcDbEntity
  8
0
  6
Continuous
 62
     7
100
AcDbLine
 10
-146.4440931545811
 20
160.4499244008372
 30
0.0
 11
-146.4440931545811
 21
177.4499244008372
 31
0.0
  0
LINE
  5
D5
330
1F
100
AcDbEntity
  8
0
  6
Continuous
 62
     7
100
AcDbLine
 10
-146.4440931545811
 20
160.4499244008372
 30
0.0
 11
-148.4440931545811
 21
160.4499244008372
 31
0.0
  0
LINE
  5
D6
330
1F
100
AcDbEntity
  8
0
  6
Continuous
 62
     7
100
AcDbLine
 10
-119.0440931545811
 20
167.9499244008372
 30
0.0
 11
-118.1440931545811
 21
167.9499244008372
 31
0.0
  0
LINE
  5
D7
330
1F
100
AcDbEntity
  8
0
  6
Continuous
 62
     7
100
AcDbLine
 10
-133.7440447025145
 20
169.8759719534527
 30
0.0
 11
-131.7046466583457
 21
168.6999244008372
 31
0.0
  0
LINE
  5
D8
330
1F
100
AcDbEntity
  8
0
  6
Continuous
 62
     7
100
AcDbLine
 10
-131.7440931545811
 20
162.9499244008372
 30
0.0
 11
-134.5440931545811
 21
162.9499244008372
 31
0.0
  0
LINE
  5
D9
330
1F
100
AcDbEntity
  8
0
  6
Continuous
 62
     7
100
AcDbLine
 10
-75.1440926140613
 20
160.4499244008372
 30
0.0
 11
-75.1440926140613
 21
177.4499244008372
 31
0.0
  0
LINE
  5
DA
330
1F
100
AcDbEntity
  8
0
  6
Continuous
 62
     7
100
AcDbLine
 10
-73.69409261406108
 20
177.4499244008372
 30
0.0
 11
-73.69409261406108
 21
167.9499244008372
 31
0.0
  0
LINE
  5
DB
330
1F
100
AcDbEntity
  8
0
  6
Continuous
 62
     7
100
AcDbLine
 10
-74.1440926140613
 20
143.4499244008372
 30
0.0
 11
-74.1440926140613
 21
145.4499244008372
 31
0.0
  0
LINE
  5
DC
330
1F
100
AcDbEntity
  8
0
  6
Continuous
 62
     2
100
AcDbLine
 10
-74.34409261406128
 20
143.4499244008372
 30
0.0
 11
-74.34409261406128
 21
145.4499244008372
 31
0.0
  0
LINE
  5
DD
330
1F
100
AcDbEntity
  8
0
  6
Continuous
 62
     7
100
AcDbLine
 10
-74.1440926140613
 20
143.4499244008372
 30
0.0
 11
-74.34409261406128
 21
143.4499244008372
 31
0.0
  0
LINE
  5
DE
330
1F
100
AcDbEntity
  8
0
  6
Continuous
 62
     7
100
AcDbLine
 10
-73.69409261406108
 20
177.4499244008372
 30
0.0
 11
-75.1440926140613
 21
177.4499244008372
 31
0.0
  0
LINE
  5
DF
330
1F
100
AcDbEntity
  8
0
  6
Continuous
 62
     7
100
AcDbLine
 10
-75.1440926140613
 20
160.4499244008372
 30
0.0
 11
-77.1440926140613
 21
160.4499244008372
 31
0.0
  0
LINE
  5
E0
330
1F
100
AcDbEntity
  8
0
  6
Continuous
 62
     7
100
AcDbLine
 10
-77.1440926140613
 20
145.4499244008372
 30
0.0
 11
-74.34409261406128
 21
145.4499244008372
 31
0.0
  0
LINE
  5
E1
330
1F
100
AcDbEntity
  8
0
  6
Continuous
 62
     7
100
AcDbLine
 10
-74.34409261406128
 20
145.4499244008372
 30
0.0
 11
-74.1440926140613
 21
145.4499244008372
 31
0.0
  0
LINE
  5
E2
330
1F
100
AcDbEntity
  8
0
  6
Continuous
 62
     7
100
AcDbLine
 10
-77.14409261406107
 20
174.9499244008372
 30
0.0
 11
-77.1440926140613
 21
174.4499244008372
 31
0.0
  0
LINE
  5
E3
330
1F
100
AcDbEntity
  8
0
  6
Continuous
 62
     7
100
AcDbLine
 10
-77.1440926140613
 20
177.4499244008372
 30
0.0
 11
-77.14409261406107
 21
174.9499244008372
 31
0.0
  0
LINE
  5
E4
330
1F
100
AcDbEntity
  8
0
  6
Continuous
 62
     7
100
AcDbLine
 10
-77.1440926140613
 20
145.4499244008372
 30
0.0
 11
-77.1440926140613
 21
160.4499244008372
 31
0.0
  0
LINE
  5
E5
330
1F
100
AcDbEntity
  8
0
  6
Continuous
 62
     7
100
AcDbLine
 10
-77.1440926140613
 20
145.4499244008372
 30
0.0
 11
-77.1440926140613
 21
143.4499244008372
 31
0.0
  0
LINE
  5
E6
330
1F
100
AcDbEntity
  8
0
  6
Continuous
 62
     7
100
AcDbLine
 10
-77.1440926140613
 20
174.4499244008372
 30
0.0
 11
-77.1440926140613
 21
160.4499244008372
 31
0.0
  0
LINE
  5
E7
330
1F
100
AcDbEntity
  8
0
  6
Continuous
 62
     7
100
AcDbLine
 10
-74.34409261406128
 20
143.4499244008372
 30
0.0
 11
-77.1440926140613
 21
143.4499244008372
 31
0.0
  0
LINE
  5
E8
330
1F
100
AcDbEntity
  8
0
  6
Continuous
 62
     7
100
AcDbLine
 10
-75.1440926140613
 20
177.4499244008372
 30
0.0
 11
-77.1440926140613
 21
177.4499244008372
 31
0.0
  0
LINE
  5
E9
330
1F
100
AcDbEntity
  8
0
  6
Continuous
 62
     7
100
AcDbLine
 10
-70.594092614061
 20
167.9499244008372
 30
0.0
 11
-73.69409261406108
 21
167.9499244008372
 31
0.0
  0
LINE
  5
EA
330
1F
100
AcDbEntity
  8
0
  6
Continuous
 62
     7
100
AcDbLine
 10
-70.594092614061
 20
167.9499244008372
 30
0.0
 11
-70.594092614061
 21
177.4499244008372
 31
0.0
  0
LINE
  5
EB
330
1F
100
AcDbEntity
  8
0
  6
Continuous
 62
     7
100
AcDbLine
 10
-73.69409261406108
 20
177.4499244008372
 30
0.0
 11
-70.594092614061
 21
177.4499244008372
 31
0.0
  0
LINE
  5
EC
330
1F
100
AcDbEntity
  8
0
  6
Continuous
 62
     7
100
AcDbLine
 10
-53.69409261406108
 20
177.4499244008372
 30
0.0
 11
-57.43934969464144
 21
177.4499244008372
 31
0.0
  0
LINE
  5
ED
330
1F
100
AcDbEntity
  8
0
  6
Continuous
 62
     7
100
AcDbLine
 10
-57.43934969464144
 20
177.4499244008372
 30
0.0
 11
-57.48752410073396
 21
177.4499244008273
 31
0.0
  0
LINE
  5
EE
330
1F
100
AcDbEntity
  8
0
  6
Continuous
 62
     7
100
AcDbLine
 10
-58.25347193925663
 20
177.4499244008372
 30
0.0
 11
-60.01182581089628
 21
177.4499244008372
 31
0.0
  0
LINE
  5
EF
330
1F
100
AcDbEntity
  8
0
  6
Continuous
 62
     7
100
AcDbLine
 10
-57.48752410073396
 20
177.4499244008273
 30
0.0
 11
-58.25347193925663
 21
177.4499244008372
 31
0.0
  0
LINE
  5
F0
330
1F
100
AcDbEntity
  8
0
  6
Continuous
 62
     7
100
AcDbLine
 10
-60.01182581089628
 20
177.4499244008372
 30
0.0
 11
-70.594092614061
 21
177.4499244008372
 31
0.0
  0
LINE
  5
F1
330
1F
100
AcDbEntity
  8
0
  6
Continuous
 62
     2
100
AcDbLine
 10
-79.1440926140613
 20
174.9499244008372
 30
0.0
 11
-77.14409261406107
 21
174.9499244008372
 31
0.0
  0
LINE
  5
F2
330
1F
100
AcDbEntity
  8
0
  6
Continuous
 62
     7
100
AcDbLine
 10
-77.1440926140613
 20
177.4499244008372
 30
0.0
 11
-79.1440926140613
 21
177.4499244008372
 31
0.0
  0
LINE
  5
F3
330
1F
100
AcDbEntity
  8
0
  6
Continuous
 62
     7
100
AcDbLine
 10
-79.1440926140613
 20
177.4499244008372
 30
0.0
 11
-79.1440926140613
 21
174.9499244008372
 31
0.0
  0
LINE
  5
F4
330
1F
100
AcDbEntity
  8
0
  6
Continuous
 62
     2
100
AcDbLine
 10
-47.14409261406129
 20
174.9499244008372
 30
0.0
 11
-45.14409261406129
 21
174.9499244008372
 31
0.0
  0
LINE
  5
F5
330
1F
100
AcDbEntity
  8
0
  6
Continuous
 62
     7
100
AcDbLine
 10
-45.14409261406129
 20
177.4499244008372
 30
0.0
 11
-47.14409261406129
 21
177.4499244008372
 31
0.0
  0
LINE
  5
F6
330
1F
100
AcDbEntity
  8
0
  6
Continuous
 62
     7
100
AcDbLine
 10
-45.14409261406129
 20
174.9499244008372
 30
0.0
 11
-45.14409261406129
 21
177.4499244008372
 31
0.0
  0
LINE
  5
F7
330
1F
100
AcDbEntity
  8
0
  6
Continuous
 62
     7
100
AcDbLine
 10
-45.14409261406129
 20
174.4499244008372
 30
0.0
 11
-45.14409261406129
 21
174.9499244008372
 31
0.0
  0
LINE
  5
F8
330
1F
100
AcDbEntity
  8
0
  6
Continuous
 62
     7
100
AcDbLine
 10
-79.1440926140613
 20
174.4499244008372
 30
0.0
 11
-79.1440926140613
 21
174.9499244008372
 31
0.0
  0
LINE
  5
F9
330
1F
100
AcDbEntity
  8
0
  6
Continuous
 62
     7
100
AcDbLine
 10
-45.14409261406129
 20
174.4499244008372
 30
0.0
 11
-47.14409261406129
 21
174.4499244008372
 31
0.0
  0
LINE
  5
FA
330
1F
100
AcDbEntity
  8
0
  6
Continuous
 62
     7
100
AcDbLine
 10
-77.1440926140613
 20
174.4499244008372
 30
0.0
 11
-79.1440926140613
 21
174.4499244008372
 31
0.0
  0
LINE
  5
FB
330
1F
100
AcDbEntity
  8
0
  6
Continuous
 62
     7
100
AcDbLine
 10
-59.99409261406132
 20
143.4499244008372
 30
0.0
 11
-59.24253928136173
 21
143.4499244008372
 31
0.0
  0
LINE
  5
FC
330
1F
100
AcDbEntity
  8
0
  6
Continuous
 62
     7
100
AcDbLine
 10
-59.24253928136173
 20
150.4499244008372
 30
0.0
 11
-59.99409261406132
 21
150.4499244008372
 31
0.0
  0
LINE
  5
FD
330
1F
100
AcDbEntity
  8
0
  6
Continuous
 62
     7
100
AcDbLine
 10
-58.25347193925663
 20
165.4499244008372
 30
0.0
 11
-60.01182581089628
 21
165.4499244008372
 31
0.0
  0
LINE
  5
FE
330
1F
100
AcDbEntity
  8
0
  6
Continuous
 62
     7
100
AcDbLine
 10
-49.99147604426051
 20
143.4499244008372
 30
0.0
 11
-49.2430293769601
 21
143.4499244008372
 31
0.0
  0
LINE
  5
FF
330
1F
100
AcDbEntity
  8
0
  6
Continuous
 62
     7
100
AcDbLine
 10
-49.2430293769601
 20
150.4499244008372
 30
0.0
 11
-49.99147604426051
 21
150.4499244008372
 31
0.0
  0
LINE
  5
100
330
1F
100
AcDbEntity
  8
0
  6
Continuous
 62
     7
100
AcDbLine
 10
-49.2430293769601
 20
150.4499244008372
 30
0.0
 11
-49.14409261406129
 21
150.4499244008372
 31
0.0
  0
LINE
  5
101
330
1F
100
AcDbEntity
  8
0
  6
Continuous
 62
     7
100
AcDbLine
 10
-50.59409261406105
 20
167.9499244008372
 30
0.0
 11
-53.69409261406108
 21
167.9499244008372
 31
0.0
  0
LINE
  5
102
330
1F
100
AcDbEntity
  8
0
  6
Continuous
 62
     7
100
AcDbLine
 10
-58.25347193925663
 20
177.4499244008372
 30
0.0
 11
-58.25347193925663
 21
165.4499244008372
 31
0.0
  0
LINE
  5
103
330
1F
100
AcDbEntity
  8
0
  6
Continuous
 62
     2
100
AcDbLine
 10
-59.24253928136173
 20
143.4499244008372
 30
0.0
 11
-59.24253928136173
 21
150.4499244008372
 31
0.0
  0
LINE
  5
104
330
1F
100
AcDbEntity
  8
0
  6
Continuous
 62
     7
100
AcDbLine
 10
-57.43934969464144
 20
165.4499244008372
 30
0.0
 11
-58.25347193925663
 21
165.4499244008372
 31
0.0
  0
LINE
  5
105
330
1F
100
AcDbEntity
  8
0
  6
Continuous
 62
     7
100
AcDbLine
 10
-57.43934969464144
 20
165.4499244008372
 30
0.0
 11
-57.43934969464144
 21
177.4499244008372
 31
0.0
  0
LINE
  5
106
330
1F
100
AcDbEntity
  8
0
  6
Continuous
 62
     7
100
AcDbLine
 10
-59.99409261406132
 20
143.4499244008372
 30
0.0
 11
-59.99409261406132
 21
150.4499244008372
 31
0.0
  0
LINE
  5
107
330
1F
100
AcDbEntity
  8
0
  6
Continuous
 62
     7
100
AcDbLine
 10
-60.01182581089628
 20
165.4499244008372
 30
0.0
 11
-60.01182581089628
 21
177.4499244008372
 31
0.0
  0
LINE
  5
108
330
1F
100
AcDbEntity
  8
0
  6
Continuous
 62
     7
100
AcDbLine
 10
-53.69409261406108
 20
177.4499244008372
 30
0.0
 11
-53.69409261406108
 21
167.9499244008372
 31
0.0
  0
LINE
  5
109
330
1F
100
AcDbEntity
  8
0
  6
Continuous
 62
     7
100
AcDbLine
 10
-50.59409261406105
 20
167.9499244008372
 30
0.0
 11
-50.59409261406105
 21
177.4499244008372
 31
0.0
  0
LINE
  5
10A
330
1F
100
AcDbEntity
  8
0
  6
Continuous
 62
     2
100
AcDbLine
 10
-49.99147604426051
 20
143.4499244008372
 30
0.0
 11
-49.99147604426051
 21
150.4499244008372
 31
0.0
  0
LINE
  5
10B
330
1F
100
AcDbEntity
  8
0
  6
Continuous
 62
     7
100
AcDbLine
 10
-50.59409261406105
 20
177.4499244008372
 30
0.0
 11
-53.69409261406108
 21
177.4499244008372
 31
0.0
  0
LINE
  5
10C
330
1F
100
AcDbEntity
  8
0
  6
Continuous
 62
     7
100
AcDbLine
 10
-49.14409261406129
 20
177.4499244008372
 30
0.0
 11
-49.14409261406129
 21
160.4499244008372
 31
0.0
  0
LINE
  5
10D
330
1F
100
AcDbEntity
  8
0
  6
Continuous
 62
     2
100
AcDbLine
 10
-49.2430293769601
 20
143.4499244008372
 30
0.0
 11
-49.2430293769601
 21
150.4499244008372
 31
0.0
  0
LINE
  5
10E
330
1F
100
AcDbEntity
  8
0
  6
Continuous
 62
     7
100
AcDbLine
 10
-47.14409261406129
 20
160.4499244008372
 30
0.0
 11
-47.14409261406129
 21
150.4499244008372
 31
0.0
  0
LINE
  5
10F
330
1F
100
AcDbEntity
  8
0
  6
Continuous
 62
     7
100
AcDbLine
 10
-47.14409261406129
 20
150.4499244008372
 30
0.0
 11
-47.14409261406129
 21
143.4499244008372
 31
0.0
  0
LINE
  5
110
330
1F
100
AcDbEntity
  8
0
  6
Continuous
 62
     7
100
AcDbLine
 10
-49.14409261406129
 20
143.4499244008372
 30
0.0
 11
-49.2430293769601
 21
143.4499244008372
 31
0.0
  0
LINE
  5
111
330
1F
100
AcDbEntity
  8
0
  6
Continuous
 62
     7
100
AcDbLine
 10
-47.14409261406129
 20
143.4499244008372
 30
0.0
 11
-49.14409261406129
 21
143.4499244008372
 31
0.0
  0
LINE
  5
112
330
1F
100
AcDbEntity
  8
0
  6
Continuous
 62
     7
100
AcDbLine
 10
-47.14409261406129
 20
150.4499244008372
 30
0.0
 11
-49.14409261406129
 21
150.4499244008372
 31
0.0
  0
LINE
  5
113
330
1F
100
AcDbEntity
  8
0
  6
Continuous
 62
     7
100
AcDbLine
 10
-47.14409261406129
 20
160.4499244008372
 30
0.0
 11
-49.14409261406129
 21
160.4499244008372
 31
0.0
  0
LINE
  5
114
330
1F
100
AcDbEntity
  8
0
  6
Continuous
 62
     7
100
AcDbLine
 10
-49.14409261406129
 20
143.4499244008372
 30
0.0
 11
-49.14409261406129
 21
150.4499244008372
 31
0.0
  0
LINE
  5
115
330
1F
100
AcDbEntity
  8
0
  6
Continuous
 62
     7
100
AcDbLine
 10
-49.14409261406129
 20
177.4499244008372
 30
0.0
 11
-50.59409261406105
 21
177.4499244008372
 31
0.0
  0
LINE
  5
116
330
1F
100
AcDbEntity
  8
0
  6
Continuous
 62
     7
100
AcDbLine
 10
-47.14409261406129
 20
174.4499244008372
 30
0.0
 11
-47.14409261406129
 21
174.9499244008372
 31
0.0
  0
LINE
  5
117
330
1F
100
AcDbEntity
  8
0
  6
Continuous
 62
     7
100
AcDbLine
 10
-47.14409261406129
 20
174.9499244008372
 30
0.0
 11
-47.14409261406129
 21
177.4499244008372
 31
0.0
  0
LINE
  5
118
330
1F
100
AcDbEntity
  8
0
  6
Continuous
 62
     7
100
AcDbLine
 10
-47.14409261406129
 20
160.4499244008372
 30
0.0
 11
-47.14409261406129
 21
174.4499244008372
 31
0.0
  0
LINE
  5
119
330
1F
100
AcDbEntity
  8
0
  6
Continuous
 62
     7
100
AcDbLine
 10
-47.14409261406129
 20
177.4499244008372
 30
0.0
 11
-49.14409261406129
 21
177.4499244008372
 31
0.0
  0
LINE
  5
11A
330
1F
100
AcDbEntity
  8
0
  6
Continuous
 62
     7
100
AcDbLine
 10
-64.29409261406133
 20
150.4499244008372
 30
0.0
 11
-64.29409261406133
 21
143.4499244008372
 31
0.0
  0
LINE
  5
11B
330
1F
100
AcDbEntity
  8
0
  6
Continuous
 62
     7
100
AcDbLine
 10
-49.99147604426051
 20
150.4499244008372
 30
0.0
 11
-59.24253928136173
 21
150.4499244008372
 31
0.0
  0
LINE
  5
11C
330
1F
100
AcDbEntity
  8
0
  6
Continuous
 62
     7
100
AcDbLine
 10
-49.99147604426051
 20
143.4499244008372
 30
0.0
 11
-59.24253928136173
 21
143.4499244008372
 31
0.0
  0
LINE
  5
11D
330
1F
100
AcDbEntity
  8
0
  6
Continuous
 62
     7
100
AcDbLine
 10
-59.99409261406132
 20
150.4499244008372
 30
0.0
 11
-64.29409261406133
 21
150.4499244008372
 31
0.0
  0
LINE
  5
11E
330
1F
100
AcDbEntity
  8
0
  6
Continuous
 62
     7
100
AcDbLine
 10
-64.29409261406133
 20
143.4499244008372
 30
0.0
 11
-74.1440926140613
 21
143.4499244008372
 31
0.0
  0
LINE
  5
11F
330
1F
100
AcDbEntity
  8
0
  6
Continuous
 62
     7
100
AcDbLine
 10
-143.694093154581
 20
266.3324881841862
 30
0.0
 11
-138.494093154581
 21
266.3324881841862
 31
0.0
  0
LINE
  5
120
330
1F
100
AcDbEntity
  8
0
  6
Continuous
 62
     2
100
AcDbLine
 10
-138.494093154581
 20
264.3324881841862
 30
0.0
 11
-138.494093154581
 21
266.3324881841862
 31
0.0
  0
LINE
  5
121
330
1F
100
AcDbEntity
  8
0
  6
Continuous
 62
     2
100
AcDbLine
 10
-143.694093154581
 20
264.3324881841862
 30
0.0
 11
-143.694093154581
 21
266.3324881841862
 31
0.0
  0
LINE
  5
122
330
1F
100
AcDbEntity
  8
0
  6
Continuous
 62
     7
100
AcDbLine
 10
-143.694093154581
 20
264.3324881841862
 30
0.0
 11
-138.494093154581
 21
264.3324881841862
 31
0.0
  0
LINE
  5
123
330
1F
100
AcDbEntity
  8
0
  6
Continuous
 62
     7
100
AcDbLine
 10
-144.194093154581
 20
266.3324881841862
 30
0.0
 11
-144.194093154581
 21
264.3324881841862
 31
0.0
  0
LINE
  5
124
330
1F
100
AcDbEntity
  8
0
  6
Continuous
 62
     7
100
AcDbLine
 10
-143.694093154581
 20
266.3324881841862
 30
0.0
 11
-144.194093154581
 21
266.3324881841862
 31
0.0
  0
LINE
  5
125
330
1F
100
AcDbEntity
  8
0
  6
Continuous
 62
     7
100
AcDbLine
 10
-137.494093154581
 20
232.3324881841862
 30
0.0
 11
-144.694093154581
 21
232.3324881841862
 31
0.0
  0
LINE
  5
126
330
1F
100
AcDbEntity
  8
0
  6
Continuous
 62
     2
100
AcDbLine
 10
-144.694093154581
 20
232.3324881841862
 30
0.0
 11
-144.694093154581
 21
234.3324881841862
 31
0.0
  0
LINE
  5
127
330
1F
100
AcDbEntity
  8
0
  6
Continuous
 62
     7
100
AcDbLine
 10
-145.444093154581
 20
237.1324881841862
 30
0.0
 11
-145.444093154581
 21
234.3324881841862
 31
0.0
  0
LINE
  5
128
330
1F
100
AcDbEntity
  8
0
  6
Continuous
 62
     7
100
AcDbLine
 10
-144.194093154581
 20
235.8824881841862
 30
0.0
 11
-144.194093154581
 21
238.1824881841862
 31
0.0
  0
LINE
  5
129
330
1F
100
AcDbEntity
  8
0
  6
Continuous
 62
     7
100
AcDbLine
 10
-145.444093154581
 20
234.3324881841862
 30
0.0
 11
-145.194093154581
 21
234.3324881841862
 31
0.0
  0
LINE
  5
12A
330
1F
100
AcDbEntity
  8
0
  6
Continuous
 62
     7
100
AcDbLine
 10
-145.194093154581
 20
232.3324881841862
 30
0.0
 11
-145.194093154581
 21
234.3324881841862
 31
0.0
  0
LINE
  5
12B
330
1F
100
AcDbEntity
  8
0
  6
Continuous
 62
     2
100
AcDbLine
 10
-137.494093154581
 20
232.3324881841862
 30
0.0
 11
-137.494093154581
 21
234.3324881841862
 31
0.0
  0
LINE
  5
12C
330
1F
100
AcDbEntity
  8
0
  6
Continuous
 62
     7
100
AcDbLine
 10
-119.044093154581
 20
251.4824881841862
 30
0.0
 11
-119.044093154581
 21
240.6685510687629
 31
0.0
  0
LINE
  5
12D
330
1F
100
AcDbEntity
  8
0
  6
Continuous
 62
     7
100
AcDbLine
 10
-125.7177234120076
 20
251.4824881841862
 30
0.0
 11
-119.044093154581
 21
251.4824881841862
 31
0.0
  0
LINE
  5
12E
330
1F
100
AcDbEntity
  8
0
  6
Continuous
 62
     7
100
AcDbLine
 10
-121.3440931545916
 20
248.0324881841837
 30
0.0
 11
-120.6440931545916
 21
248.0324881841837
 31
0.0
  0
LINE
  5
12F
330
1F
100
AcDbEntity
  8
0
  6
Continuous
 62
     7
100
AcDbLine
 10
-120.6440931545916
 20
248.0324881841837
 30
0.0
 11
-120.6440931545916
 21
250.4324881841837
 31
0.0
  0
LINE
  5
130
330
1F
100
AcDbEntity
  8
0
  6
Continuous
 62
     7
100
AcDbLine
 10
-120.6440931545916
 20
250.4324881841837
 30
0.0
 11
-121.3440931545916
 21
250.4324881841837
 31
0.0
  0
LINE
  5
131
330
1F
100
AcDbEntity
  8
0
  6
Continuous
 62
     7
100
AcDbLine
 10
-121.3440931545916
 20
250.4324881841837
 30
0.0
 11
-121.3440931545916
 21
248.0324881841837
 31
0.0
  0
LINE
  5
132
330
1F
100
AcDbEntity
  8
0
  6
Continuous
 62
     7
100
AcDbLine
 10
-119.044093154581
 20
234.3324881841862
 30
0.0
 11
-122.294093154581
 21
234.3324881841862
 31
0.0
  0
LINE
  5
133
330
1F
100
AcDbEntity
  8
0
  6
Continuous
 62
     7
100
AcDbLine
 10
-129.994093154581
 20
234.3324881841862
 30
0.0
 11
-130.494093154581
 21
234.3324881841864
 31
0.0
  0
LINE
  5
134
330
1F
100
AcDbEntity
  8
0
  6
Continuous
 62
     7
100
AcDbLine
 10
-119.044093154581
 20
237.9964252996099
 30
0.0
 11
-119.044093154581
 21
234.3324881841862
 31
0.0
  0
LINE
  5
135
330
1F
100
AcDbEntity
  8
0
  6
Continuous
 62
     7
100
AcDbLine
 10
-119.044093154581
 20
238.9964252996099
 30
0.0
 11
-119.044093154581
 21
237.9964252996099
 31
0.0
  0
LINE
  5
136
330
1F
100
AcDbEntity
  8
0
  6
Continuous
 62
     7
100
AcDbLine
 10
-119.044093154581
 20
239.668551068763
 30
0.0
 11
-119.044093154581
 21
238.9964252996099
 31
0.0
  0
LINE
  5
137
330
1F
100
AcDbEntity
  8
0
  6
Continuous
 62
     7
100
AcDbLine
 10
-119.044093154581
 20
240.6685510687629
 30
0.0
 11
-119.044093154581
 21
239.668551068763
 31
0.0
  0
LINE
  5
138
330
1F
100
AcDbEntity
  8
0
  6
Continuous
 62
     7
100
AcDbLine
 10
-135.1441594692697
 20
237.1798716143854
 30
0.0
 11
-140.4705292118432
 21
246.4309348514866
 31
0.0
  0
LINE
  5
139
330
1F
100
AcDbEntity
  8
0
  6
Continuous
 62
     7
100
AcDbLine
 10
-141.4329976774885
 20
246.0819704066196
 30
0.0
 11
-136.1357298661623
 21
236.8814526290531
 31
0.0
  0
LINE
  5
13A
330
1F
100
AcDbEntity
  8
0
  6
Continuous
 62
     7
100
AcDbLine
 10
-134.544093154581
 20
262.3324881841862
 30
0.0
 11
-132.544093154581
 21
262.3324881841862
 31
0.0
  0
LINE
  5
13B
330
1F
100
AcDbEntity
  8
0
  6
Continuous
 62
     7
100
AcDbLine
 10
-134.544093154581
 20
261.6049248728417
 30
0.0
 11
-134.544093154581
 21
262.3324881841862
 31
0.0
  0
LINE
  5
13C
330
1F
100
AcDbEntity
  8
0
  6
Continuous
 62
     7
100
AcDbLine
 10
-131.744093154581
 20
264.3324881841862
 30
0.0
 11
-135.744093154581
 21
264.3324881841862
 31
0.0
  0
LINE
  5
13D
330
1F
100
AcDbEntity
  8
0
  6
Continuous
 62
     7
100
AcDbLine
 10
-137.994093154581
 20
264.3324881841862
 30
0.0
 11
-137.994093154581
 21
266.3324881841862
 31
0.0
  0
LINE
  5
13E
330
1F
100
AcDbEntity
  8
0
  6
Continuous
 62
     7
100
AcDbLine
 10
-138.494093154581
 20
266.3324881841862
 30
0.0
 11
-137.994093154581
 21
266.3324881841862
 31
0.0
  0
LINE
  5
13F
330
1F
100
AcDbEntity
  8
0
  6
Continuous
 62
     2
100
AcDbLine
 10
-128.994093154581
 20
266.3324881841862
 30
0.0
 11
-128.994093154581
 21
264.3324881841862
 31
0.0
  0
LINE
  5
140
330
1F
100
AcDbEntity
  8
0
  6
Continuous
 62
     7
100
AcDbLine
 10
-128.994093154581
 20
266.3324881841862
 30
0.0
 11
-129.494093154581
 21
266.3324881841862
 31
0.0
  0
LINE
  5
141
330
1F
100
AcDbEntity
  8
0
  6
Continuous
 62
     7
100
AcDbLine
 10
-129.494093154581
 20
266.3324881841862
 30
0.0
 11
-129.494093154581
 21
264.3324881841862
 31
0.0
  0
LINE
  5
142
330
1F
100
AcDbEntity
  8
0
  6
Continuous
 62
     7
100
AcDbLine
 10
-131.744093154581
 20
264.3324881841862
 30
0.0
 11
-129.494093154581
 21
264.3324881841862
 31
0.0
  0
LINE
  5
143
330
1F
100
AcDbEntity
  8
0
  6
Continuous
 62
     7
100
AcDbLine
 10
-121.8690931545916
 20
247.9824881841837
 30
0.0
 11
-121.8690931545916
 21
248.0324881841837
 31
0.0
  0
LINE
  5
144
330
1F
100
AcDbEntity
  8
0
  6
Continuous
 62
     7
100
AcDbLine
 10
-121.8690931545916
 20
248.0324881841837
 30
0.0
 11
-121.3940931545916
 21
248.0324881841837
 31
0.0
  0
LINE
  5
145
330
1F
100
AcDbEntity
  8
0
  6
Continuous
 62
     7
100
AcDbLine
 10
-121.3940931545916
 20
248.0324881841837
 30
0.0
 11
-121.3940931545916
 21
250.4324881841837
 31
0.0
  0
LINE
  5
146
330
1F
100
AcDbEntity
  8
0
  6
Continuous
 62
     7
100
AcDbLine
 10
-121.3940931545916
 20
250.4324881841837
 30
0.0
 11
-121.8690931545916
 21
250.4324881841837
 31
0.0
  0
LINE
  5
147
330
1F
100
AcDbEntity
  8
0
  6
Continuous
 62
     7
100
AcDbLine
 10
-121.8690931545916
 20
250.4324881841837
 30
0.0
 11
-121.8690931545916
 21
250.4824881841837
 31
0.0
  0
LINE
  5
148
330
1F
100
AcDbEntity
  8
0
  6
Continuous
 62
     7
100
AcDbLine
 10
-123.294093154581
 20
264.3324881841862
 30
0.0
 11
-123.294093154581
 21
266.3324881841862
 31
0.0
  0
LINE
  5
149
330
1F
100
AcDbEntity
  8
0
  6
Continuous
 62
     7
100
AcDbLine
 10
-123.794093154581
 20
264.3324881841862
 30
0.0
 11
-123.294093154581
 21
264.3324881841862
 31
0.0
  0
LINE
  5
14A
330
1F
100
AcDbEntity
  8
0
  6
Continuous
 62
     7
100
AcDbLine
 10
-123.794093154581
 20
266.3324881841862
 30
0.0
 11
-123.294093154581
 21
266.3324881841862
 31
0.0
  0
LINE
  5
14B
330
1F
100
AcDbEntity
  8
0
  6
Continuous
 62
     7
100
AcDbLine
 10
-118.144093154581
 20
258.9964252996099
 30
0.0
 11
-118.144093154581
 21
257.9964252996099
 31
0.0
  0
LINE
  5
14C
330
1F
100
AcDbEntity
  8
0
  6
Continuous
 62
     7
100
AcDbLine
 10
-118.144093154581
 20
257.9964252996099
 30
0.0
 11
-119.044093154581
 21
257.9964252996099
 31
0.0
  0
LINE
  5
14D
330
1F
100
AcDbEntity
  8
0
  6
Continuous
 62
     7
100
AcDbLine
 10
-141.7704628971544
 20
247.1824881841862
 30
0.0
 11
-148.444093154581
 21
247.1824881841862
 31
0.0
  0
LINE
  5
14E
330
1F
100
AcDbEntity
  8
0
  6
Continuous
 62
     7
100
AcDbLine
 10
-146.694093154581
 20
246.3324881841862
 30
0.0
 11
-141.8663089059256
 21
246.3324881841862
 31
0.0
  0
LINE
  5
14F
330
1F
100
AcDbEntity
  8
0
  6
Continuous
 62
     7
100
AcDbLine
 10
-146.8608333845853
 20
250.4324881841837
 30
0.0
 11
-147.0858333845854
 21
250.4324881841837
 31
0.0
  0
LINE
  5
150
330
1F
100
AcDbEntity
  8
0
  6
Continuous
 62
     7
100
AcDbLine
 10
-146.5858333845854
 20
247.9824881841837
 30
0.0
 11
-147.0858333845854
 21
247.9824881841837
 31
0.0
  0
LINE
  5
151
330
1F
100
AcDbEntity
  8
0
  6
Continuous
 62
     7
100
AcDbLine
 10
-147.0858333845854
 20
250.4824881841838
 30
0.0
 11
-146.5858333845854
 21
250.4824881841838
 31
0.0
  0
LINE
  5
152
330
1F
100
AcDbEntity
  8
0
  6
Continuous
 62
     7
100
AcDbLine
 10
-146.5858333845854
 20
250.4824881841838
 30
0.0
 11
-146.5858333845854
 21
250.4324881841837
 31
0.0
  0
LINE
  5
153
330
1F
100
AcDbEntity
  8
0
  6
Continuous
 62
     7
100
AcDbLine
 10
-146.5858333845854
 20
250.4324881841837
 30
0.0
 11
-146.8108333845854
 21
250.4324881841837
 31
0.0
  0
LINE
  5
154
330
1F
100
AcDbEntity
  8
0
  6
Continuous
 62
     7
100
AcDbLine
 10
-147.0858333845854
 20
248.0324881841837
 30
0.0
 11
-146.8608333845853
 21
248.0324881841837
 31
0.0
  0
LINE
  5
155
330
1F
100
AcDbEntity
  8
0
  6
Continuous
 62
     7
100
AcDbLine
 10
-146.8108333845854
 20
248.0324881841837
 30
0.0
 11
-146.5858333845854
 21
248.0324881841837
 31
0.0
  0
LINE
  5
156
330
1F
100
AcDbEntity
  8
0
  6
Continuous
 62
     7
100
AcDbLine
 10
-147.0858333845854
 20
247.9824881841837
 30
0.0
 11
-147.0858333845854
 21
248.0324881841837
 31
0.0
  0
LINE
  5
157
330
1F
100
AcDbEntity
  8
0
  6
Continuous
 62
     7
100
AcDbLine
 10
-147.0858333845854
 20
250.4324881841837
 30
0.0
 11
-147.0858333845854
 21
250.4824881841838
 31
0.0
  0
LINE
  5
158
330
1F
100
AcDbEntity
  8
0
  6
Continuous
 62
     7
100
AcDbLine
 10
-146.5858333845854
 20
248.0324881841837
 30
0.0
 11
-146.5858333845854
 21
247.9824881841837
 31
0.0
  0
LINE
  5
159
330
1F
100
AcDbEntity
  8
0
  6
Continuous
 62
     7
100
AcDbLine
 10
-146.8608333845853
 20
248.0324881841837
 30
0.0
 11
-146.8608333845853
 21
250.4324881841837
 31
0.0
  0
LINE
  5
15A
330
1F
100
AcDbEntity
  8
0
  6
Continuous
 62
     7
100
AcDbLine
 10
-146.8108333845854
 20
250.4324881841837
 30
0.0
 11
-146.8108333845854
 21
248.0324881841837
 31
0.0
  0
LINE
  5
15B
330
1F
100
AcDbEntity
  8
0
  6
Continuous
 62
     7
100
AcDbLine
 10
-119.044093154581
 20
258.9964252996099
 30
0.0
 11
-118.144093154581
 21
258.9964252996099
 31
0.0
  0
LINE
  5
15C
330
1F
100
AcDbEntity
  8
0
  6
Continuous
 62
     7
100
AcDbLine
 10
-118.144093154581
 20
259.668551068763
 30
0.0
 11
-119.044093154581
 21
259.668551068763
 31
0.0
  0
LINE
  5
15D
330
1F
100
AcDbEntity
  8
0
  6
Continuous
 62
     7
100
AcDbLine
 10
-119.044093154581
 20
260.6685510687628
 30
0.0
 11
-118.144093154581
 21
260.6685510687628
 31
0.0
  0
LINE
  5
15E
330
1F
100
AcDbEntity
  8
0
  6
Continuous
 62
     7
100
AcDbLine
 10
-118.144093154581
 20
260.6685510687628
 30
0.0
 11
-118.144093154581
 21
259.668551068763
 31
0.0
  0
LINE
  5
15F
330
1F
100
AcDbEntity
  8
0
  6
Continuous
 62
     7
100
AcDbLine
 10
-130.494093154581
 20
234.3324881841864
 30
0.0
 11
-130.494093154581
 21
232.3324881841862
 31
0.0
  0
LINE
  5
160
330
1F
100
AcDbEntity
  8
0
  6
Continuous
 62
     7
100
AcDbLine
 10
-122.794093154581
 20
234.3324881841862
 30
0.0
 11
-129.994093154581
 21
234.3324881841862
 31
0.0
  0
LINE
  5
161
330
1F
100
AcDbEntity
  8
0
  6
Continuous
 62
     7
100
AcDbLine
 10
-122.794093154581
 20
232.3324881841862
 30
0.0
 11
-129.994093154581
 21
232.3324881841862
 31
0.0
  0
LINE
  5
162
330
1F
100
AcDbEntity
  8
0
  6
Continuous
 62
     7
100
AcDbLine
 10
-144.694093154581
 20
234.3324881841862
 30
0.0
 11
-137.494093154581
 21
234.3324881841862
 31
0.0
  0
LINE
  5
163
330
1F
100
AcDbEntity
  8
0
  6
Continuous
 62
     7
100
AcDbLine
 10
-136.994093154581
 20
234.3324881841862
 30
0.0
 11
-135.744093154581
 21
234.3324881841862
 31
0.0
  0
LINE
  5
164
330
1F
100
AcDbEntity
  8
0
  6
Continuous
 62
     7
100
AcDbLine
 10
-137.0023523230365
 20
235.3824881841862
 30
0.0
 11
-143.694093154581
 21
235.3824881841862
 31
0.0
  0
LINE
  5
165
330
1F
100
AcDbEntity
  8
0
  6
Continuous
 62
     7
100
AcDbLine
 10
-135.744093154581
 20
234.3324881841862
 30
0.0
 11
-135.744093154581
 21
236.3324881841862
 31
0.0
  0
LINE
  5
166
330
1F
100
AcDbEntity
  8
0
  6
Continuous
 62
     7
100
AcDbLine
 10
-145.194093154581
 20
234.3324881841862
 30
0.0
 11
-144.694093154581
 21
234.3324881841862
 31
0.0
  0
LINE
  5
167
330
1F
100
AcDbEntity
  8
0
  6
Continuous
 62
     7
100
AcDbLine
 10
-137.494093154581
 20
234.3324881841862
 30
0.0
 11
-136.994093154581
 21
234.3324881841862
 31
0.0
  0
LINE
  5
168
330
1F
100
AcDbEntity
  8
0
  6
Continuous
 62
     7
100
AcDbLine
 10
-134.944093154581
 20
236.3324881841862
 30
0.0
 11
-134.944093154581
 21
236.4314249470849
 31
0.0
  0
LINE
  5
169
330
1F
100
AcDbEntity
  8
0
  6
Continuous
 62
     7
100
AcDbLine
 10
-135.744093154581
 20
236.3324881841862
 30
0.0
 11
-134.944093154581
 21
236.3324881841862
 31
0.0
  0
LINE
  5
16A
330
1F
100
AcDbEntity
  8
0
  6
Continuous
 62
     2
100
AcDbLine
 10
-122.794093154581
 20
234.3324881841862
 30
0.0
 11
-122.794093154581
 21
232.3324881841862
 31
0.0
  0
LINE
  5
16B
330
1F
100
AcDbEntity
  8
0
  6
Continuous
 62
     2
100
AcDbLine
 10
-129.994093154581
 20
232.3324881841862
 30
0.0
 11
-129.994093154581
 21
234.3324881841862
 31
0.0
  0
LINE
  5
16C
330
1F
100
AcDbEntity
  8
0
  6
Continuous
 62
     7
100
AcDbLine
 10
-132.9440931545811
 20
236.3324881841862
 30
0.0
 11
-134.944093154581
 21
236.3324881841862
 31
0.0
  0
LINE
  5
16D
330
1F
100
AcDbEntity
  8
0
  6
Continuous
 62
     7
100
AcDbLine
 10
-132.9440931545811
 20
237.0600514955198
 30
0.0
 11
-132.9440931545811
 21
236.3324881841862
 31
0.0
  0
LINE
  5
16E
330
1F
100
AcDbEntity
  8
0
  6
Continuous
 62
     7
100
AcDbLine
 10
-131.744093154581
 20
234.3324881841862
 30
0.0
 11
-131.744093154581
 21
236.2863781939691
 31
0.0
  0
LINE
  5
16F
330
1F
100
AcDbEntity
  8
0
  6
Continuous
 62
     7
100
AcDbLine
 10
-136.994093154581
 20
232.3324881841864
 30
0.0
 11
-136.994093154581
 21
234.3324881841862
 31
0.0
  0
LINE
  5
170
330
1F
100
AcDbEntity
  8
0
  6
Continuous
 62
     7
100
AcDbLine
 10
-137.494093154581
 20
232.3324881841862
 30
0.0
 11
-136.994093154581
 21
232.3324881841864
 31
0.0
  0
LINE
  5
171
330
1F
100
AcDbEntity
  8
0
  6
Continuous
 62
     7
100
AcDbLine
 10
-131.744093154581
 20
234.3324881841862
 30
0.0
 11
-135.744093154581
 21
234.3324881841862
 31
0.0
  0
LINE
  5
172
330
1F
100
AcDbEntity
  8
0
  6
Continuous
 62
     7
100
AcDbLine
 10
-130.494093154581
 20
234.3324881841864
 30
0.0
 11
-131.744093154581
 21
234.3324881841862
 31
0.0
  0
LINE
  5
173
330
1F
100
AcDbEntity
  8
0
  6
Continuous
 62
     7
100
AcDbLine
 10
-145.194093154581
 20
232.3324881841862
 30
0.0
 11
-144.694093154581
 21
232.3324881841862
 31
0.0
  0
LINE
  5
174
330
1F
100
AcDbEntity
  8
0
  6
Continuous
 62
     7
100
AcDbLine
 10
-122.294093154581
 20
234.3324881841862
 30
0.0
 11
-122.794093154581
 21
234.3324881841862
 31
0.0
  0
LINE
  5
175
330
1F
100
AcDbEntity
  8
0
  6
Continuous
 62
     7
100
AcDbLine
 10
-122.294093154581
 20
234.3324881841862
 30
0.0
 11
-122.294093154581
 21
232.3324881841862
 31
0.0
  0
LINE
  5
176
330
1F
100
AcDbEntity
  8
0
  6
Continuous
 62
     7
100
AcDbLine
 10
-122.294093154581
 20
232.3324881841862
 30
0.0
 11
-122.794093154581
 21
232.3324881841862
 31
0.0
  0
LINE
  5
177
330
1F
100
AcDbEntity
  8
0
  6
Continuous
 62
     7
100
AcDbLine
 10
-129.994093154581
 20
232.3324881841862
 30
0.0
 11
-130.494093154581
 21
232.3324881841862
 31
0.0
  0
LINE
  5
178
330
1F
100
AcDbEntity
  8
0
  6
Continuous
 62
     7
100
AcDbLine
 10
-126.0551886316735
 20
252.5830059617527
 30
0.0
 11
-131.3524564429997
 21
261.7835237393192
 31
0.0
  0
LINE
  5
179
330
1F
100
AcDbEntity
  8
0
  6
Continuous
 62
     7
100
AcDbLine
 10
-132.3440268398923
 20
261.485104753987
 30
0.0
 11
-127.0176570973189
 21
252.2340415168858
 31
0.0
  0
LINE
  5
17A
330
1F
100
AcDbEntity
  8
0
  6
Continuous
 62
     7
100
AcDbLine
 10
-132.544093154581
 20
262.3324881841862
 30
0.0
 11
-132.544093154581
 21
262.2335514212874
 31
0.0
  0
LINE
  5
17B
330
1F
100
AcDbEntity
  8
0
  6
Continuous
 62
     7
100
AcDbLine
 10
-131.744093154581
 20
262.3324881841862
 30
0.0
 11
-132.544093154581
 21
262.3324881841862
 31
0.0
  0
LINE
  5
17C
330
1F
100
AcDbEntity
  8
0
  6
Continuous
 62
     7
100
AcDbLine
 10
-121.294093154581
 20
260.1324881841862
 30
0.0
 11
-120.794093154581
 21
260.1324881841862
 31
0.0
  0
LINE
  5
17D
330
1F
100
AcDbEntity
  8
0
  6
Continuous
 62
     7
100
AcDbLine
 10
-119.044093154581
 20
251.4824881841862
 30
0.0
 11
-119.044093154581
 21
257.9964252996099
 31
0.0
  0
LINE
  5
17E
330
1F
100
AcDbEntity
  8
0
  6
Continuous
 62
     7
100
AcDbLine
 10
-119.044093154581
 20
259.668551068763
 30
0.0
 11
-119.044093154581
 21
260.6685510687628
 31
0.0
  0
LINE
  5
17F
330
1F
100
AcDbEntity
  8
0
  6
Continuous
 62
     7
100
AcDbLine
 10
-119.044093154581
 20
260.6685510687628
 30
0.0
 11
-119.044093154581
 21
261.3324881841862
 31
0.0
  0
LINE
  5
180
330
1F
100
AcDbEntity
  8
0
  6
Continuous
 62
     7
100
AcDbLine
 10
-119.044093154581
 20
258.9964252996099
 30
0.0
 11
-119.044093154581
 21
259.668551068763
 31
0.0
  0
LINE
  5
181
330
1F
100
AcDbEntity
  8
0
  6
Continuous
 62
     7
100
AcDbLine
 10
-119.044093154581
 20
257.9964252996099
 30
0.0
 11
-119.044093154581
 21
258.9964252996099
 31
0.0
  0
LINE
  5
182
330
1F
100
AcDbEntity
  8
0
  6
Continuous
 62
     7
100
AcDbLine
 10
-120.294093154581
 20
259.6324881841862
 30
0.0
 11
-120.294093154581
 21
252.8324881841862
 31
0.0
  0
LINE
  5
183
330
1F
100
AcDbEntity
  8
0
  6
Continuous
 62
     7
100
AcDbLine
 10
-120.794093154581
 20
252.3324881841862
 30
0.0
 11
-125.6218774032364
 21
252.3324881841862
 31
0.0
  0
LINE
  5
184
330
1F
100
AcDbEntity
  8
0
  6
Continuous
 62
     7
100
AcDbLine
 10
-121.8690931545916
 20
250.4824881841837
 30
0.0
 11
-120.1190931545916
 21
250.4824881841836
 31
0.0
  0
LINE
  5
185
330
1F
100
AcDbEntity
  8
0
  6
Continuous
 62
     7
100
AcDbLine
 10
-120.1190931545916
 20
248.0324881841837
 30
0.0
 11
-120.1190931545916
 21
247.9824881841837
 31
0.0
  0
LINE
  5
186
330
1F
100
AcDbEntity
  8
0
  6
Continuous
 62
     7
100
AcDbLine
 10
-120.1190931545916
 20
250.4824881841836
 30
0.0
 11
-120.1190931545916
 21
250.4324881841836
 31
0.0
  0
LINE
  5
187
330
1F
100
AcDbEntity
  8
0
  6
Continuous
 62
     7
100
AcDbLine
 10
-120.1190931545916
 20
247.9824881841837
 30
0.0
 11
-121.8690931545916
 21
247.9824881841837
 31
0.0
  0
LINE
  5
188
330
1F
100
AcDbEntity
  8
0
  6
Continuous
 62
     7
100
AcDbLine
 10
-120.5940931545916
 20
250.4324881841837
 30
0.0
 11
-120.5940931545916
 21
248.0324881841837
 31
0.0
  0
LINE
  5
189
330
1F
100
AcDbEntity
  8
0
  6
Continuous
 62
     7
100
AcDbLine
 10
-120.1190931545916
 20
250.4324881841836
 30
0.0
 11
-120.5940931545916
 21
250.4324881841837
 31
0.0
  0
LINE
  5
18A
330
1F
100
AcDbEntity
  8
0
  6
Continuous
 62
     7
100
AcDbLine
 10
-120.5940931545916
 20
248.0324881841837
 30
0.0
 11
-120.1190931545916
 21
248.0324881841837
 31
0.0
  0
LINE
  5
18B
330
1F
100
AcDbEntity
  8
0
  6
Continuous
 62
     7
100
AcDbLine
 10
-119.044093154581
 20
261.3324881841862
 30
0.0
 11
-121.844093154581
 21
261.3324881841862
 31
0.0
  0
LINE
  5
18C
330
1F
100
AcDbEntity
  8
0
  6
Continuous
 62
     7
100
AcDbLine
 10
-138.494093154581
 20
264.3324881841862
 30
0.0
 11
-137.994093154581
 21
264.3324881841862
 31
0.0
  0
LINE
  5
18D
330
1F
100
AcDbEntity
  8
0
  6
Continuous
 62
     7
100
AcDbLine
 10
-137.994093154581
 20
264.3324881841862
 30
0.0
 11
-135.744093154581
 21
264.3324881841862
 31
0.0
  0
LINE
  5
18E
330
1F
100
AcDbEntity
  8
0
  6
Continuous
 62
     7
100
AcDbLine
 10
-131.744093154581
 20
264.3324881841862
 30
0.0
 11
-131.744093154581
 21
262.3324881841862
 31
0.0
  0
LINE
  5
18F
330
1F
100
AcDbEntity
  8
0
  6
Continuous
 62
     7
100
AcDbLine
 10
-130.4858339861255
 20
263.2824881841862
 30
0.0
 11
-123.794093154581
 21
263.2824881841862
 31
0.0
  0
LINE
  5
190
330
1F
100
AcDbEntity
  8
0
  6
Continuous
 62
     7
100
AcDbLine
 10
-128.994093154581
 20
264.3324881841862
 30
0.0
 11
-123.794093154581
 21
264.3324881841862
 31
0.0
  0
LINE
  5
191
330
1F
100
AcDbEntity
  8
0
  6
Continuous
 62
     7
100
AcDbLine
 10
-129.494093154581
 20
264.3324881841862
 30
0.0
 11
-128.994093154581
 21
264.3324881841862
 31
0.0
  0
LINE
  5
192
330
1F
100
AcDbEntity
  8
0
  6
Continuous
 62
     7
100
AcDbLine
 10
-123.294093154581
 20
264.3324881841862
 30
0.0
 11
-122.044093154581
 21
264.3324881841862
 31
0.0
  0
LINE
  5
193
330
1F
100
AcDbEntity
  8
0
  6
Continuous
 62
     7
100
AcDbLine
 10
-123.294093154581
 20
262.7824881841862
 30
0.0
 11
-123.294093154581
 21
262.1324881841862
 31
0.0
  0
LINE
  5
194
330
1F
100
AcDbEntity
  8
0
  6
Continuous
 62
     7
100
AcDbLine
 10
-119.044093154581
 20
264.3324881841862
 30
0.0
 11
-119.044093154581
 21
261.3324881841862
 31
0.0
  0
LINE
  5
195
330
1F
100
AcDbEntity
  8
0
  6
Continuous
 62
     7
100
AcDbLine
 10
-122.044093154581
 20
261.5324881841862
 30
0.0
 11
-122.044093154581
 21
264.3324881841862
 31
0.0
  0
LINE
  5
196
330
1F
100
AcDbEntity
  8
0
  6
Continuous
 62
     7
100
AcDbLine
 10
-122.044093154581
 20
264.3324881841862
 30
0.0
 11
-119.044093154581
 21
264.3324881841862
 31
0.0
  0
LINE
  5
197
330
1F
100
AcDbEntity
  8
0
  6
Continuous
 62
     2
100
AcDbLine
 10
-123.794093154581
 20
266.3324881841862
 30
0.0
 11
-123.794093154581
 21
264.3324881841862
 31
0.0
  0
LINE
  5
198
330
1F
100
AcDbEntity
  8
0
  6
Continuous
 62
     7
100
AcDbLine
 10
-128.994093154581
 20
266.3324881841862
 30
0.0
 11
-123.794093154581
 21
266.3324881841862
 31
0.0
  0
LINE
  5
199
330
1F
100
AcDbEntity
  8
0
  6
Continuous
 62
     7
100
AcDbLine
 10
-135.744093154581
 20
264.3324881841862
 30
0.0
 11
-135.744093154581
 21
262.3785981743953
 31
0.0
  0
LINE
  5
19A
330
1F
100
AcDbEntity
  8
0
  6
Continuous
 62
     7
100
AcDbLine
 10
-148.444093154581
 20
234.3324881841862
 30
0.0
 11
-148.444093154581
 21
237.3324881841862
 31
0.0
  0
LINE
  5
19B
330
1F
100
AcDbEntity
  8
0
  6
Continuous
 62
     7
100
AcDbLine
 10
-148.444093154581
 20
247.1824881841862
 30
0.0
 11
-148.444093154581
 21
237.3324881841862
 31
0.0
  0
LINE
  5
19C
330
1F
100
AcDbEntity
  8
0
  6
Continuous
 62
     7
100
AcDbLine
 10
-147.194093154581
 20
240.6824881841862
 30
0.0
 11
-147.194093154581
 21
245.8324881841862
 31
0.0
  0
LINE
  5
19D
330
1F
100
AcDbEntity
  8
0
  6
Continuous
 62
     7
100
AcDbLine
 10
-148.444093154581
 20
247.1824881841862
 30
0.0
 11
-148.444093154581
 21
264.3324881841862
 31
0.0
  0
LINE
  5
19E
330
1F
100
AcDbEntity
  8
0
  6
Continuous
 62
     7
100
AcDbLine
 10
-148.444093154581
 20
264.3324881841862
 30
0.0
 11
-144.194093154581
 21
264.3324881841862
 31
0.0
  0
LINE
  5
19F
330
1F
100
AcDbEntity
  8
0
  6
Continuous
 62
     7
100
AcDbLine
 10
-144.194093154581
 20
264.3324881841862
 30
0.0
 11
-143.694093154581
 21
264.3324881841862
 31
0.0
  0
LINE
  5
1A0
330
1F
100
AcDbEntity
  8
0
  6
Continuous
 62
     7
100
AcDbLine
 10
-118.144093154581
 20
240.6685510687629
 30
0.0
 11
-118.144093154581
 21
239.668551068763
 31
0.0
  0
LINE
  5
1A1
330
1F
100
AcDbEntity
  8
0
  6
Continuous
 62
     7
100
AcDbLine
 10
-118.144093154581
 20
239.668551068763
 30
0.0
 11
-119.044093154581
 21
239.668551068763
 31
0.0
  0
LINE
  5
1A2
330
1F
100
AcDbEntity
  8
0
  6
Continuous
 62
     7
100
AcDbLine
 10
-118.144093154581
 20
238.9964252996099
 30
0.0
 11
-118.144093154581
 21
237.9964252996099
 31
0.0
  0
LINE
  5
1A3
330
1F
100
AcDbEntity
  8
0
  6
Continuous
 62
     7
100
AcDbLine
 10
-145.444093154581
 20
234.3324881841862
 30
0.0
 11
-148.444093154581
 21
234.3324881841862
 31
0.0
  0
LINE
  5
1A4
330
1F
100
AcDbEntity
  8
0
  6
Continuous
 62
     7
100
AcDbLine
 10
-148.444093154581
 20
237.3324881841862
 30
0.0
 11
-145.644093154581
 21
237.3324881841862
 31
0.0
  0
LINE
  5
1A5
330
1F
100
AcDbEntity
  8
0
  6
Continuous
 62
     7
100
AcDbLine
 10
-146.194093154581
 20
240.1824881841862
 30
0.0
 11
-146.694093154581
 21
240.1824881841862
 31
0.0
  0
LINE
  5
1A6
330
1F
100
AcDbEntity
  8
0
  6
Continuous
 62
     7
100
AcDbLine
 10
-119.044093154581
 20
238.9964252996099
 30
0.0
 11
-118.144093154581
 21
238.9964252996099
 31
0.0
  0
LINE
  5
1A7
330
1F
100
AcDbEntity
  8
0
  6
Continuous
 62
     7
100
AcDbLine
 10
-118.144093154581
 20
237.9964252996099
 30
0.0
 11
-119.044093154581
 21
237.9964252996099
 31
0.0
  0
LINE
  5
1A8
330
1F
100
AcDbEntity
  8
0
  6
Continuous
 62
     7
100
AcDbLine
 10
-119.044093154581
 20
240.6685510687629
 30
0.0
 11
-118.144093154581
 21
240.6685510687629
 31
0.0
  0
LINE
  5
1A9
330
1F
100
AcDbEntity
  8
0
  6
Continuous
 62
     7
100
AcDbLine
 10
-141.1115514420239
 20
88.20656434405473
 30
0.0
 11
-143.388262695647
 21
90.05020876543412
 31
0.0
  0
LINE
  5
1AA
330
1F
100
AcDbEntity
  8
0
  6
Continuous
 62
     7
100
AcDbLine
 10
-142.1276420242967
 20
87.8712946645525
 30
0.0
 11
-142.4794305808612
 21
88.15616742072183
 31
0.0
  0
LINE
  5
1AB
330
1F
100
AcDbEntity
  8
0
  6
Continuous
 62
     7
100
AcDbLine
 10
-140.744093154581
 20
91.63957041541184
 30
0.0
 11
-140.744093154581
 21
88.2900737541132
 31
0.0
  0
LINE
  5
1AC
330
1F
100
AcDbEntity
  8
0
  6
Continuous
 62
     7
100
AcDbLine
 10
-137.744093154581
 20
91.63957041541184
 30
0.0
 11
-140.744093154581
 21
91.63957041541184
 31
0.0
  0
LINE
  5
1AD
330
1F
100
AcDbEntity
  8
0
  6
Continuous
 62
     7
100
AcDbLine
 10
-137.744093154581
 20
88.2900737541132
 30
0.0
 11
-137.744093154581
 21
91.63957041541184
 31
0.0
  0
LINE
  5
1AE
330
1F
100
AcDbEntity
  8
0
  6
Continuous
 62
     7
100
AcDbLine
 10
-130.494093154581
 20
104.1395704154118
 30
0.0
 11
-122.294093154581
 21
104.1395704154118
 31
0.0
  0
LINE
  5
1AF
330
1F
100
AcDbEntity
  8
0
  6
Continuous
 62
     7
100
AcDbLine
 10
-131.9648248999435
 20
100.066496948818
 30
0.0
 11
-134.6436905034699
 21
101.2542692631507
 31
0.0
  0
LINE
  5
1B0
330
1F
100
AcDbEntity
  8
0
  6
Continuous
 62
     7
100
AcDbLine
 10
-134.3896980450013
 20
100.1580070950608
 30
0.0
 11
-133.2717500910753
 21
99.66232428559317
 31
0.0
  0
LINE
  5
1B1
330
1F
100
AcDbEntity
  8
0
  6
Continuous
 62
     7
100
AcDbLine
 10
-133.2717500910753
 20
99.66232428559317
 30
0.0
 11
-132.8579098927999
 21
99.47883321033177
 31
0.0
  0
LINE
  5
1B2
330
1F
100
AcDbEntity
  8
0
  6
Continuous
 62
     7
100
AcDbLine
 10
-130.494093154581
 20
102.1395704154118
 30
0.0
 11
-130.494093154581
 21
104.1395704154118
 31
0.0
  0
LINE
  5
1B3
330
1F
100
AcDbEntity
  8
0
  6
Continuous
 62
     7
100
AcDbLine
 10
-123.044093154591
 20
99.13957041556947
 30
0.0
 11
-123.044093154591
 21
99.18957041556945
 31
0.0
  0
LINE
  5
1B4
330
1F
100
AcDbEntity
  8
0
  6
Continuous
 62
     7
100
AcDbLine
 10
-123.044093154591
 20
99.18957041556945
 30
0.0
 11
-122.569093154591
 21
99.18957041556948
 31
0.0
  0
LINE
  5
1B5
330
1F
100
AcDbEntity
  8
0
  6
Continuous
 62
     7
100
AcDbLine
 10
-122.569093154591
 20
99.18957041556948
 30
0.0
 11
-122.569093154591
 21
101.5895704155695
 31
0.0
  0
LINE
  5
1B6
330
1F
100
AcDbEntity
  8
0
  6
Continuous
 62
     7
100
AcDbLine
 10
-122.569093154591
 20
101.5895704155695
 30
0.0
 11
-123.044093154591
 21
101.5895704155695
 31
0.0
  0
LINE
  5
1B7
330
1F
100
AcDbEntity
  8
0
  6
Continuous
 62
     7
100
AcDbLine
 10
-123.044093154591
 20
101.5895704155695
 30
0.0
 11
-123.044093154591
 21
101.6395704155695
 31
0.0
  0
LINE
  5
1B8
330
1F
100
AcDbEntity
  8
0
  6
Continuous
 62
     7
100
AcDbLine
 10
-122.5190931545909
 20
101.5895704155695
 30
0.0
 11
-122.5190931545909
 21
99.18957041556948
 31
0.0
  0
LINE
  5
1B9
330
1F
100
AcDbEntity
  8
0
  6
Continuous
 62
     7
100
AcDbLine
 10
-121.294093154591
 20
99.18957041556956
 30
0.0
 11
-121.294093154591
 21
99.13957041556958
 31
0.0
  0
LINE
  5
1BA
330
1F
100
AcDbEntity
  8
0
  6
Continuous
 62
     7
100
AcDbLine
 10
-121.294093154591
 20
99.13957041556958
 30
0.0
 11
-123.044093154591
 21
99.13957041556947
 31
0.0
  0
LINE
  5
1BB
330
1F
100
AcDbEntity
  8
0
  6
Continuous
 62
     7
100
AcDbLine
 10
-123.044093154591
 20
101.6395704155695
 30
0.0
 11
-121.294093154591
 21
101.6395704155695
 31
0.0
  0
LINE
  5
1BC
330
1F
100
AcDbEntity
  8
0
  6
Continuous
 62
     7
100
AcDbLine
 10
-121.294093154591
 20
101.6395704155695
 30
0.0
 11
-121.294093154591
 21
101.5895704155695
 31
0.0
  0
LINE
  5
1BD
330
1F
100
AcDbEntity
  8
0
  6
Continuous
 62
     7
100
AcDbLine
 10
-121.819093154591
 20
99.18957041556948
 30
0.0
 11
-121.819093154591
 21
101.5895704155695
 31
0.0
  0
LINE
  5
1BE
330
1F
100
AcDbEntity
  8
0
  6
Continuous
 62
     7
100
AcDbLine
 10
-121.7690931545909
 20
101.5895704155695
 30
0.0
 11
-121.7690931545909
 21
99.18957041556953
 31
0.0
  0
LINE
  5
1BF
330
1F
100
AcDbEntity
  8
0
  6
Continuous
 62
     7
100
AcDbLine
 10
-121.7690931545909
 20
99.18957041556953
 30
0.0
 11
-121.294093154591
 21
99.18957041556956
 31
0.0
  0
LINE
  5
1C0
330
1F
100
AcDbEntity
  8
0
  6
Continuous
 62
     7
100
AcDbLine
 10
-122.5190931545909
 20
99.18957041556948
 30
0.0
 11
-121.819093154591
 21
99.18957041556948
 31
0.0
  0
LINE
  5
1C1
330
1F
100
AcDbEntity
  8
0
  6
Continuous
 62
     7
100
AcDbLine
 10
-121.819093154591
 20
101.5895704155695
 30
0.0
 11
-122.5190931545909
 21
101.5895704155695
 31
0.0
  0
LINE
  5
1C2
330
1F
100
AcDbEntity
  8
0
  6
Continuous
 62
     7
100
AcDbLine
 10
-121.294093154591
 20
101.5895704155695
 30
0.0
 11
-121.7690931545909
 21
101.5895704155695
 31
0.0
  0
LINE
  5
1C3
330
1F
100
AcDbEntity
  8
0
  6
Continuous
 62
     7
100
AcDbLine
 10
-136.994093154581
 20
104.1395704154116
 30
0.0
 11
-136.994093154581
 21
102.1395704154118
 31
0.0
  0
LINE
  5
1C4
330
1F
100
AcDbEntity
  8
0
  6
Continuous
 62
     7
100
AcDbLine
 10
-136.994093154581
 20
102.1395704154118
 30
0.0
 11
-130.494093154581
 21
102.1395704154118
 31
0.0
  0
LINE
  5
1C5
330
1F
100
AcDbEntity
  8
0
  6
Continuous
 62
     7
100
AcDbLine
 10
-138.3314811881104
 20
92.93498874609665
 30
0.0
 11
-135.6533464745868
 21
91.74754049837972
 31
0.0
  0
LINE
  5
1C6
330
1F
100
AcDbEntity
  8
0
  6
Continuous
 62
     7
100
AcDbLine
 10
-136.2314060889819
 20
92.98920157995323
 30
0.0
 11
-135.8176161020967
 21
92.80573276773535
 31
0.0
  0
LINE
  5
1C7
330
1F
100
AcDbEntity
  8
0
  6
Continuous
 62
     7
100
AcDbLine
 10
-136.2314060889819
 20
92.98920157995323
 30
0.0
 11
-137.3486146120692
 21
93.48455653591398
 31
0.0
  0
LINE
  5
1C8
330
1F
100
AcDbEntity
  8
0
  6
Continuous
 62
     7
100
AcDbLine
 10
-145.194093154581
 20
102.1395704154118
 30
0.0
 11
-145.194093154581
 21
104.1395704154118
 31
0.0
  0
LINE
  5
1C9
330
1F
100
AcDbEntity
  8
0
  6
Continuous
 62
     7
100
AcDbLine
 10
-145.194093154581
 20
104.1395704154118
 30
0.0
 11
-136.994093154581
 21
104.1395704154116
 31
0.0
  0
LINE
  5
1CA
330
1F
100
AcDbEntity
  8
0
  6
Continuous
 62
     7
100
AcDbLine
 10
-148.444093154581
 20
85.0073036122468
 30
0.0
 11
-148.444093154581
 21
95.58957041541154
 31
0.0
  0
LINE
  5
1CB
330
1F
100
AcDbEntity
  8
0
  6
Continuous
 62
     7
100
AcDbLine
 10
-148.444093154581
 20
82.43482749599201
 30
0.0
 11
-148.444093154581
 21
85.0073036122468
 31
0.0
  0
LINE
  5
1CC
330
1F
100
AcDbEntity
  8
0
  6
Continuous
 62
     7
100
AcDbLine
 10
-143.4252973887052
 20
88.92211525924301
 30
0.0
 11
-142.4794305808612
 21
88.15616742072183
 31
0.0
  0
LINE
  5
1CD
330
1F
100
AcDbEntity
  8
0
  6
Continuous
 62
     7
100
AcDbLine
 10
-147.0734694355212
 20
82.48300190208451
 30
0.0
 11
-148.019336243369
 21
83.24894974060712
 31
0.0
  0
LINE
  5
1CE
330
1F
100
AcDbEntity
  8
0
  6
Continuous
 62
     7
100
AcDbLine
 10
-147.444093154581
 20
98.68957041541162
 30
0.0
 11
-148.444093154581
 21
98.68957041541162
 31
0.0
  0
LINE
  5
1CF
330
1F
100
AcDbEntity
  8
0
  6
Continuous
 62
     7
100
AcDbLine
 10
-148.444093154581
 20
95.58957041541154
 30
0.0
 11
-147.444093154581
 21
95.58957041541154
 31
0.0
  0
LINE
  5
1D0
330
1F
100
AcDbEntity
  8
0
  6
Continuous
 62
     7
100
AcDbLine
 10
-147.444093154581
 20
95.58957041541154
 30
0.0
 11
-147.444093154581
 21
98.68957041541162
 31
0.0
  0
LINE
  5
1D1
330
1F
100
AcDbEntity
  8
0
  6
Continuous
 62
     7
100
AcDbLine
 10
-148.444093154581
 20
95.58957041541154
 30
0.0
 11
-148.444093154581
 21
98.68957041541162
 31
0.0
  0
LINE
  5
1D2
330
1F
100
AcDbEntity
  8
0
  6
Continuous
 62
     7
100
AcDbLine
 10
-148.444093154581
 20
100.1395704154118
 30
0.0
 11
-148.444093154581
 21
102.1395704154118
 31
0.0
  0
LINE
  5
1D3
330
1F
100
AcDbEntity
  8
0
  6
Continuous
 62
     7
100
AcDbLine
 10
-146.244093154581
 20
102.1395704154118
 30
0.0
 11
-145.194093154581
 21
102.1395704154118
 31
0.0
  0
LINE
  5
1D4
330
1F
100
AcDbEntity
  8
0
  6
Continuous
 62
     7
100
AcDbLine
 10
-146.244093154581
 20
100.1395704154118
 30
0.0
 11
-146.244093154581
 21
102.1395704154118
 31
0.0
  0
LINE
  5
1D5
330
1F
100
AcDbEntity
  8
0
  6
Continuous
 62
     7
100
AcDbLine
 10
-148.444093154581
 20
100.1395704154118
 30
0.0
 11
-146.244093154581
 21
100.1395704154118
 31
0.0
  0
LINE
  5
1D6
330
1F
100
AcDbEntity
  8
0
  6
Continuous
 62
     7
100
AcDbLine
 10
-148.444093154581
 20
98.68957041541162
 30
0.0
 11
-148.444093154581
 21
100.1395704154118
 31
0.0
  0
LINE
  5
1D7
330
1F
100
AcDbEntity
  8
0
  6
Continuous
 62
     7
100
AcDbLine
 10
-148.444093154581
 20
102.1395704154118
 30
0.0
 11
-146.244093154581
 21
102.1395704154118
 31
0.0
  0
LINE
  5
1D8
330
1F
100
AcDbEntity
  8
0
  6
Continuous
 62
     7
100
AcDbLine
 10
-135.5225028060358
 20
74.21312602361206
 30
0.0
 11
-132.8491145351109
 21
73.0277822835281
 31
0.0
  0
LINE
  5
1D9
330
1F
100
AcDbEntity
  8
0
  6
Continuous
 62
     7
100
AcDbLine
 10
-131.2568301695019
 20
81.29082423221078
 30
0.0
 11
-131.670645257088
 21
81.47430417373704
 31
0.0
  0
LINE
  5
1DA
330
1F
100
AcDbEntity
  8
0
  6
Continuous
 62
     7
100
AcDbLine
 10
-133.1031069935795
 20
74.124044451618
 30
0.0
 11
-134.2157467365681
 21
74.6173736730662
 31
0.0
  0
LINE
  5
1DB
330
1F
100
AcDbEntity
  8
0
  6
Continuous
 62
     7
100
AcDbLine
 10
-145.9440931545911
 20
75.13957041556947
 30
0.0
 11
-145.4440931545911
 21
75.13957041556947
 31
0.0
  0
LINE
  5
1DC
330
1F
100
AcDbEntity
  8
0
  6
Continuous
 62
     7
100
AcDbLine
 10
-148.444093154581
 20
75.5895704154116
 30
0.0
 11
-147.444093154581
 21
75.5895704154116
 31
0.0
  0
LINE
  5
1DD
330
1F
100
AcDbEntity
  8
0
  6
Continuous
 62
     7
100
AcDbLine
 10
-145.4440931545911
 20
75.13957041556947
 30
0.0
 11
-145.4440931545911
 21
75.08957041556945
 31
0.0
  0
LINE
  5
1DE
330
1F
100
AcDbEntity
  8
0
  6
Continuous
 62
     7
100
AcDbLine
 10
-145.4440931545911
 20
75.08957041556945
 30
0.0
 11
-145.669093154591
 21
75.08957041556945
 31
0.0
  0
LINE
  5
1DF
330
1F
100
AcDbEntity
  8
0
  6
Continuous
 62
     7
100
AcDbLine
 10
-145.9440931545911
 20
75.08957041556945
 30
0.0
 11
-145.9440931545911
 21
75.13957041556947
 31
0.0
  0
LINE
  5
1E0
330
1F
100
AcDbEntity
  8
0
  6
Continuous
 62
     7
100
AcDbLine
 10
-145.719093154591
 20
75.08957041556945
 30
0.0
 11
-145.9440931545911
 21
75.08957041556945
 31
0.0
  0
LINE
  5
1E1
330
1F
100
AcDbEntity
  8
0
  6
Continuous
 62
     7
100
AcDbLine
 10
-148.444093154581
 20
72.13957041541184
 30
0.0
 11
-148.444093154581
 21
74.13957041541184
 31
0.0
  0
LINE
  5
1E2
330
1F
100
AcDbEntity
  8
0
  6
Continuous
 62
     7
100
AcDbLine
 10
-148.444093154581
 20
75.5895704154116
 30
0.0
 11
-148.444093154581
 21
78.68957041541162
 31
0.0
  0
LINE
  5
1E3
330
1F
100
AcDbEntity
  8
0
  6
Continuous
 62
     7
100
AcDbLine
 10
-147.444093154581
 20
78.68957041541162
 30
0.0
 11
-148.444093154581
 21
78.68957041541162
 31
0.0
  0
LINE
  5
1E4
330
1F
100
AcDbEntity
  8
0
  6
Continuous
 62
     7
100
AcDbLine
 10
-147.444093154581
 20
75.5895704154116
 30
0.0
 11
-147.444093154581
 21
78.68957041541162
 31
0.0
  0
LINE
  5
1E5
330
1F
100
AcDbEntity
  8
0
  6
Continuous
 62
     7
100
AcDbLine
 10
-145.669093154591
 20
75.08957041556945
 30
0.0
 11
-145.669093154591
 21
72.68957041556948
 31
0.0
  0
LINE
  5
1E6
330
1F
100
AcDbEntity
  8
0
  6
Continuous
 62
     7
100
AcDbLine
 10
-146.444093154581
 20
72.13957041541184
 30
0.0
 11
-146.444093154581
 21
74.13957041541184
 31
0.0
  0
LINE
  5
1E7
330
1F
100
AcDbEntity
  8
0
  6
Continuous
 62
     7
100
AcDbLine
 10
-145.9440931545911
 20
72.63957041556947
 30
0.0
 11
-145.9440931545911
 21
72.68957041556948
 31
0.0
  0
LINE
  5
1E8
330
1F
100
AcDbEntity
  8
0
  6
Continuous
 62
     7
100
AcDbLine
 10
-145.9440931545911
 20
72.68957041556948
 30
0.0
 11
-145.719093154591
 21
72.68957041556948
 31
0.0
  0
LINE
  5
1E9
330
1F
100
AcDbEntity
  8
0
  6
Continuous
 62
     7
100
AcDbLine
 10
-145.719093154591
 20
72.68957041556948
 30
0.0
 11
-145.719093154591
 21
75.08957041556945
 31
0.0
  0
LINE
  5
1EA
330
1F
100
AcDbEntity
  8
0
  6
Continuous
 62
     7
100
AcDbLine
 10
-148.444093154581
 20
74.13957041541184
 30
0.0
 11
-148.444093154581
 21
75.5895704154116
 31
0.0
  0
LINE
  5
1EB
330
1F
100
AcDbEntity
  8
0
  6
Continuous
 62
     7
100
AcDbLine
 10
-146.444093154581
 20
74.13957041541184
 30
0.0
 11
-148.444093154581
 21
74.13957041541184
 31
0.0
  0
LINE
  5
1EC
330
1F
100
AcDbEntity
  8
0
  6
Continuous
 62
     7
100
AcDbLine
 10
-141.844093154581
 20
72.63957041541141
 30
0.0
 11
-140.344093154581
 21
72.63957041541141
 31
0.0
  0
LINE
  5
1ED
330
1F
100
AcDbEntity
  8
0
  6
Continuous
 62
     7
100
AcDbLine
 10
-145.4440931545911
 20
72.63957041556947
 30
0.0
 11
-145.9440931545911
 21
72.63957041556947
 31
0.0
  0
LINE
  5
1EE
330
1F
100
AcDbEntity
  8
0
  6
Continuous
 62
     7
100
AcDbLine
 10
-144.194093154581
 20
72.13957041541184
 30
0.0
 11
-146.444093154581
 21
72.13957041541184
 31
0.0
  0
LINE
  5
1EF
330
1F
100
AcDbEntity
  8
0
  6
Continuous
 62
     7
100
AcDbLine
 10
-146.444093154581
 20
72.13957041541184
 30
0.0
 11
-148.444093154581
 21
72.13957041541184
 31
0.0
  0
LINE
  5
1F0
330
1F
100
AcDbEntity
  8
0
  6
Continuous
 62
     7
100
AcDbLine
 10
-145.4440931545911
 20
72.68957041556948
 30
0.0
 11
-145.4440931545911
 21
72.63957041556947
 31
0.0
  0
LINE
  5
1F1
330
1F
100
AcDbEntity
  8
0
  6
Continuous
 62
     7
100
AcDbLine
 10
-145.669093154591
 20
72.68957041556948
 30
0.0
 11
-145.4440931545911
 21
72.68957041556948
 31
0.0
  0
LINE
  5
1F2
330
1F
100
AcDbEntity
  8
0
  6
Continuous
 62
     7
100
AcDbLine
 10
-148.444093154581
 20
78.68957041541162
 30
0.0
 11
-148.444093154581
 21
82.43482749599201
 31
0.0
  0
LINE
  5
1F3
330
1F
100
AcDbEntity
  8
0
  6
Continuous
 62
     7
100
AcDbLine
 10
-148.444093154581
 20
82.43482749599201
 30
0.0
 11
-146.8383670005775
 21
81.13453609479629
 31
0.0
  0
LINE
  5
1F4
330
1F
100
AcDbEntity
  8
0
  6
Continuous
 62
     7
100
AcDbLine
 10
-129.1613238504705
 20
81.34706280058211
 30
0.0
 11
-131.8350591498034
 21
82.53256040830874
 31
0.0
  0
LINE
  5
1F5
330
1F
100
AcDbEntity
  8
0
  6
Continuous
 62
     7
100
AcDbLine
 10
-131.2568301695019
 20
81.29082423221078
 30
0.0
 11
-130.1441904265116
 21
80.79749501076478
 31
0.0
  0
LINE
  5
1F6
330
1F
100
AcDbEntity
  8
0
  6
Continuous
 62
     7
100
AcDbLine
 10
-146.7216808789587
 20
82.19812914592055
 30
0.0
 11
-147.0734694355212
 21
82.48300190208451
 31
0.0
  0
LINE
  5
1F7
330
1F
100
AcDbEntity
  8
0
  6
Continuous
 62
     7
100
AcDbLine
 10
-121.044093154581
 20
74.13957041541187
 30
0.0
 11
-121.044093154581
 21
72.13957041541184
 31
0.0
  0
LINE
  5
1F8
330
1F
100
AcDbEntity
  8
0
  6
Continuous
 62
     7
100
AcDbLine
 10
-119.044093154581
 20
74.13957041541187
 30
0.0
 11
-121.044093154581
 21
74.13957041541187
 31
0.0
  0
LINE
  5
1F9
330
1F
100
AcDbEntity
  8
0
  6
Continuous
 62
     7
100
AcDbLine
 10
-119.044093154581
 20
91.84431333483167
 30
0.0
 11
-120.649819308595
 21
93.1446047360358
 31
0.0
  0
LINE
  5
1FA
330
1F
100
AcDbEntity
  8
0
  6
Continuous
 62
     7
100
AcDbLine
 10
-119.044093154581
 20
89.27183721857688
 30
0.0
 11
-119.044093154581
 21
78.47563329998815
 31
0.0
  0
LINE
  5
1FB
330
1F
100
AcDbEntity
  8
0
  6
Continuous
 62
     7
100
AcDbLine
 10
-119.044093154581
 20
95.80350753083513
 30
0.0
 11
-119.044093154581
 21
91.84431333483167
 31
0.0
  0
LINE
  5
1FC
330
1F
100
AcDbEntity
  8
0
  6
Continuous
 62
     7
100
AcDbLine
 10
-119.044093154581
 20
102.1395704154118
 30
0.0
 11
-119.044093154581
 21
100.1395704154118
 31
0.0
  0
LINE
  5
1FD
330
1F
100
AcDbEntity
  8
0
  6
Continuous
 62
     7
100
AcDbLine
 10
-119.044093154581
 20
89.27183721857688
 30
0.0
 11
-119.044093154581
 21
91.84431333483167
 31
0.0
  0
LINE
  5
1FE
330
1F
100
AcDbEntity
  8
0
  6
Continuous
 62
     7
100
AcDbLine
 10
-120.4147168736378
 20
91.7961389287367
 30
0.0
 11
-119.468850065793
 21
91.03019109021656
 31
0.0
  0
LINE
  5
1FF
330
1F
100
AcDbEntity
  8
0
  6
Continuous
 62
     7
100
AcDbLine
 10
-119.044093154581
 20
97.47563329998806
 30
0.0
 11
-119.044093154581
 21
96.80350753083508
 31
0.0
  0
LINE
  5
200
330
1F
100
AcDbEntity
  8
0
  6
Continuous
 62
     7
100
AcDbLine
 10
-119.044093154581
 20
100.1395704154118
 30
0.0
 11
-119.044093154581
 21
98.47563329998815
 31
0.0
  0
LINE
  5
201
330
1F
100
AcDbEntity
  8
0
  6
Continuous
 62
     7
100
AcDbLine
 10
-121.044093154581
 20
102.1395704154118
 30
0.0
 11
-119.044093154581
 21
102.1395704154118
 31
0.0
  0
LINE
  5
202
330
1F
100
AcDbEntity
  8
0
  6
Continuous
 62
     7
100
AcDbLine
 10
-121.044093154581
 20
100.1395704154118
 30
0.0
 11
-119.044093154581
 21
100.1395704154118
 31
0.0
  0
LINE
  5
203
330
1F
100
AcDbEntity
  8
0
  6
Continuous
 62
     7
100
AcDbLine
 10
-121.044093154581
 20
102.1395704154118
 30
0.0
 11
-121.044093154581
 21
100.1395704154118
 31
0.0
  0
LINE
  5
204
330
1F
100
AcDbEntity
  8
0
  6
Continuous
 62
     7
100
AcDbLine
 10
-119.044093154581
 20
72.13957041541184
 30
0.0
 11
-121.044093154581
 21
72.13957041541184
 31
0.0
  0
LINE
  5
205
330
1F
100
AcDbEntity
  8
0
  6
Continuous
 62
     7
100
AcDbLine
 10
-119.044093154581
 20
74.13957041541187
 30
0.0
 11
-119.044093154581
 21
72.13957041541184
 31
0.0
  0
LINE
  5
206
330
1F
100
AcDbEntity
  8
0
  6
Continuous
 62
     7
100
AcDbLine
 10
-119.044093154581
 20
75.80350753083513
 30
0.0
 11
-119.044093154581
 21
74.13957041541187
 31
0.0
  0
LINE
  5
207
330
1F
100
AcDbEntity
  8
0
  6
Continuous
 62
     7
100
AcDbLine
 10
-119.044093154581
 20
77.47563329998806
 30
0.0
 11
-119.044093154581
 21
76.80350753083505
 31
0.0
  0
LINE
  5
208
330
1F
100
AcDbEntity
  8
0
  6
Continuous
 62
     7
100
AcDbLine
 10
-118.144093154581
 20
76.80350753083505
 30
0.0
 11
-119.044093154581
 21
76.80350753083505
 31
0.0
  0
LINE
  5
209
330
1F
100
AcDbEntity
  8
0
  6
Continuous
 62
     7
100
AcDbLine
 10
-118.144093154581
 20
75.80350753083513
 30
0.0
 11
-118.144093154581
 21
76.80350753083505
 31
0.0
  0
LINE
  5
20A
330
1F
100
AcDbEntity
  8
0
  6
Continuous
 62
     7
100
AcDbLine
 10
-119.044093154581
 20
95.80350753083513
 30
0.0
 11
-118.144093154581
 21
95.80350753083513
 31
0.0
  0
LINE
  5
20B
330
1F
100
AcDbEntity
  8
0
  6
Continuous
 62
     7
100
AcDbLine
 10
-118.144093154581
 20
95.80350753083513
 30
0.0
 11
-118.144093154581
 21
96.80350753083508
 31
0.0
  0
LINE
  5
20C
330
1F
100
AcDbEntity
  8
0
  6
Continuous
 62
     7
100
AcDbLine
 10
-118.144093154581
 20
96.80350753083508
 30
0.0
 11
-119.044093154581
 21
96.80350753083508
 31
0.0
  0
LINE
  5
20D
330
1F
100
AcDbEntity
  8
0
  6
Continuous
 62
     7
100
AcDbLine
 10
-119.044093154581
 20
97.47563329998806
 30
0.0
 11
-118.144093154581
 21
97.47563329998806
 31
0.0
  0
LINE
  5
20E
330
1F
100
AcDbEntity
  8
0
  6
Continuous
 62
     7
100
AcDbLine
 10
-118.144093154581
 20
97.47563329998806
 30
0.0
 11
-118.144093154581
 21
98.47563329998815
 31
0.0
  0
LINE
  5
20F
330
1F
100
AcDbEntity
  8
0
  6
Continuous
 62
     7
100
AcDbLine
 10
-118.144093154581
 20
98.47563329998815
 30
0.0
 11
-119.044093154581
 21
98.47563329998815
 31
0.0
  0
LINE
  5
210
330
1F
100
AcDbEntity
  8
0
  6
Continuous
 62
     7
100
AcDbLine
 10
-119.044093154581
 20
75.80350753083513
 30
0.0
 11
-118.144093154581
 21
75.80350753083513
 31
0.0
  0
LINE
  5
211
330
1F
100
AcDbEntity
  8
0
  6
Continuous
 62
     7
100
AcDbLine
 10
-118.144093154581
 20
77.47563329998806
 30
0.0
 11
-118.144093154581
 21
78.47563329998815
 31
0.0
  0
LINE
  5
212
330
1F
100
AcDbEntity
  8
0
  6
Continuous
 62
     7
100
AcDbLine
 10
-118.144093154581
 20
78.47563329998815
 30
0.0
 11
-119.044093154581
 21
78.47563329998815
 31
0.0
  0
LINE
  5
213
330
1F
100
AcDbEntity
  8
0
  6
Continuous
 62
     7
100
AcDbLine
 10
-119.044093154581
 20
77.47563329998806
 30
0.0
 11
-118.144093154581
 21
77.47563329998806
 31
0.0
  0
LINE
  5
214
330
1F
100
AcDbEntity
  8
0
  6
Continuous
 62
     7
100
AcDbLine
 10
-122.294093154581
 20
102.1395704154118
 30
0.0
 11
-121.044093154581
 21
102.1395704154118
 31
0.0
  0
LINE
  5
215
330
1F
100
AcDbEntity
  8
0
  6
Continuous
 62
     7
100
AcDbLine
 10
-122.294093154581
 20
104.1395704154118
 30
0.0
 11
-122.294093154581
 21
102.1395704154118
 31
0.0
  0
LINE
  5
216
330
1F
100
AcDbEntity
  8
0
  6
Continuous
 62
     7
100
AcDbLine
 10
-129.744093154581
 20
85.9890670767108
 30
0.0
 11
-129.744093154581
 21
82.63957041541184
 31
0.0
  0
LINE
  5
217
330
1F
100
AcDbEntity
  8
0
  6
Continuous
 62
     7
100
AcDbLine
 10
-126.594093154581
 20
82.63957041541184
 30
0.0
 11
-126.594093154581
 21
86.0208441096415
 31
0.0
  0
LINE
  5
218
330
1F
100
AcDbEntity
  8
0
  6
Continuous
 62
     7
100
AcDbLine
 10
-129.744093154581
 20
82.63957041541184
 30
0.0
 11
-126.594093154581
 21
82.63957041541184
 31
0.0
  0
LINE
  5
219
330
1F
100
AcDbEntity
  8
0
  6
Continuous
 62
     7
100
AcDbLine
 10
-140.344093154581
 20
72.63957041541141
 30
0.0
 11
-141.094093154581
 21
70.63957041541141
 31
0.0
  0
LINE
  5
21A
330
1F
100
AcDbEntity
  8
0
  6
Continuous
 62
     7
100
AcDbLine
 10
-134.2157467365681
 20
74.6173736730662
 30
0.0
 11
-134.629561824156
 21
74.80085361459018
 31
0.0
  0
LINE
  5
21B
330
1F
100
AcDbEntity
  8
0
  6
Continuous
 62
     7
100
AcDbLine
 10
-144.194093154581
 20
70.13957041541184
 30
0.0
 11
-144.194093154581
 21
72.13957041541184
 31
0.0
  0
LINE
  5
21C
330
1F
100
AcDbEntity
  8
0
  6
Continuous
 62
     7
100
AcDbLine
 10
-137.994093154581
 20
70.13957041541184
 30
0.0
 11
-137.994093154581
 21
72.13957041541184
 31
0.0
  0
LINE
  5
21D
330
1F
100
AcDbEntity
  8
0
  6
Continuous
 62
     7
100
AcDbLine
 10
-137.994093154581
 20
70.13957041541184
 30
0.0
 11
-144.194093154581
 21
70.13957041541184
 31
0.0
  0
LINE
  5
21E
330
1F
100
AcDbEntity
  8
0
  6
Continuous
 62
     7
100
AcDbLine
 10
-129.494093154581
 20
72.13957041541184
 30
0.0
 11
-129.494093154581
 21
70.13957041541184
 31
0.0
  0
LINE
  5
21F
330
1F
100
AcDbEntity
  8
0
  6
Continuous
 62
     7
100
AcDbLine
 10
-137.994093154581
 20
72.13957041541184
 30
0.0
 11
-129.494093154581
 21
72.13957041541184
 31
0.0
  0
LINE
  5
220
330
1F
100
AcDbEntity
  8
0
  6
Continuous
 62
     7
100
AcDbLine
 10
-141.094093154581
 20
70.63957041541141
 30
0.0
 11
-141.844093154581
 21
72.63957041541141
 31
0.0
  0
LINE
  5
221
330
1F
100
AcDbEntity
  8
0
  6
Continuous
 62
     7
100
AcDbLine
 10
-120.4147168736378
 20
91.7961389287367
 30
0.0
 11
-120.7665054302129
 21
92.08101168491356
 31
0.0
  0
LINE
  5
222
330
1F
100
AcDbEntity
  8
0
  6
Continuous
 62
     7
100
AcDbLine
 10
-126.3766348671429
 20
86.07257648677287
 30
0.0
 11
-124.099923613515
 21
84.22893206538959
 31
0.0
  0
LINE
  5
223
330
1F
100
AcDbEntity
  8
0
  6
Continuous
 62
     7
100
AcDbLine
 10
-124.0628889204568
 20
85.35702557158066
 30
0.0
 11
-125.008755728303
 21
86.12297341010532
 31
0.0
  0
LINE
  5
224
330
1F
100
AcDbEntity
  8
0
  6
Continuous
 62
     7
100
AcDbLine
 10
-125.008755728303
 20
86.12297341010532
 30
0.0
 11
-125.3605442848726
 21
86.4078461662744
 31
0.0
  0
LINE
  5
225
330
1F
100
AcDbEntity
  8
0
  6
Continuous
 62
     7
100
AcDbLine
 10
-123.294093154581
 20
72.13957041541184
 30
0.0
 11
-123.294093154581
 21
70.13957041541184
 31
0.0
  0
LINE
  5
226
330
1F
100
AcDbEntity
  8
0
  6
Continuous
 62
     7
100
AcDbLine
 10
-121.044093154581
 20
72.13957041541184
 30
0.0
 11
-123.294093154581
 21
72.13957041541184
 31
0.0
  0
LINE
  5
227
330
1F
100
AcDbEntity
  8
0
  6
Continuous
 62
     7
100
AcDbLine
 10
-123.294093154581
 20
70.13957041541184
 30
0.0
 11
-129.494093154581
 21
70.13957041541184
 31
0.0
  0
LINE
  5
228
330
1F
100
AcDbEntity
  8
0
  6
Continuous
 62
     7
100
AcDbLine
 10
-125.644093154581
 20
72.63957041541141
 30
0.0
 11
-126.394093154581
 21
70.63957041541141
 31
0.0
  0
LINE
  5
229
330
1F
100
AcDbEntity
  8
0
  6
Continuous
 62
     7
100
AcDbLine
 10
-126.394093154581
 20
70.63957041541141
 30
0.0
 11
-127.144093154581
 21
72.63957041541141
 31
0.0
  0
LINE
  5
22A
330
1F
100
AcDbEntity
  8
0
  6
Continuous
 62
     7
100
AcDbLine
 10
-127.144093154581
 20
72.63957041541141
 30
0.0
 11
-125.644093154581
 21
72.63957041541141
 31
0.0
  0
LINE
  5
22B
330
1F
100
AcDbEntity
  8
0
  6
Continuous
 62
     7
100
AcDbLine
 10
-46.59229458499121
 20
264.1357846698319
 30
0.0
 11
-55.07757595922973
 21
268.3784253569512
 31
0.0
  0
LINE
  5
22C
330
1F
100
AcDbEntity
  8
0
  6
Continuous
 62
     7
100
AcDbLine
 10
-35.98569286719297
 20
267.7484379812068
 30
0.0
 11
-43.05676067905844
 21
271.2839718871396
 31
0.0
  0
LINE
  5
22D
330
1F
100
AcDbEntity
  8
0
  6
Continuous
 62
     7
100
AcDbLine
 10
-41.64254711668534
 20
271.9910786683261
 30
0.0
 11
-43.05676067905844
 21
271.2839718871396
 31
0.0
  0
LINE
  5
22E
330
1F
100
AcDbEntity
  8
0
  6
Continuous
 62
     7
100
AcDbLine
 10
-43.05676067905844
 20
271.2839718871396
 30
0.0
 11
-43.05676067905844
 21
269.5519210795707
 31
0.0
  0
LINE
  5
22F
330
1F
100
AcDbEntity
  8
0
  6
Continuous
 62
     7
100
AcDbLine
 10
-46.59229458499121
 20
264.1357846698319
 30
0.0
 11
-46.59229458499115
 21
261.9079550025265
 31
0.0
  0
LINE
  5
230
330
1F
100
AcDbEntity
  8
0
  6
Continuous
 62
     7
100
AcDbLine
 10
-48.36006153795753
 20
270.9478346735331
 30
0.0
 11
-48.36006153795753
 21
268.2631559218013
 31
0.0
  0
LINE
  5
231
330
1F
100
AcDbEntity
  8
0
  6
Continuous
 62
     7
100
AcDbLine
 10
-54.77722746695591
 20
267.8235490574654
 30
0.0
 11
-46.59229458499115
 21
263.7310826164831
 31
0.0
  0
LINE
  5
232
330
1F
100
AcDbEntity
  8
0
  6
Continuous
 62
     7
100
AcDbLine
 10
-54.57404122714942
 20
268.126657990911
 30
0.0
 11
-54.77722746695591
 21
267.8235490574654
 31
0.0
  0
LINE
  5
233
330
1F
100
AcDbEntity
  8
0
  6
Continuous
 62
     7
100
AcDbLine
 10
-54.37046917804318
 20
271.9754665230307
 30
0.0
 11
-48.36006153795753
 21
268.9702627029876
 31
0.0
  0
LINE
  5
234
330
1F
100
AcDbEntity
  8
0
  6
Continuous
 62
     7
100
AcDbLine
 10
-54.37046917804318
 20
273.9530384935759
 30
0.0
 11
-54.37046917804318
 21
271.9754665230307
 31
0.0
  0
LINE
  5
235
330
1F
100
AcDbEntity
  8
0
  6
Continuous
 62
     7
100
AcDbLine
 10
-55.07757595922973
 20
271.6219131324374
 30
0.0
 11
-48.36006153795753
 21
268.2631559218013
 31
0.0
  0
LINE
  5
236
330
1F
100
AcDbEntity
  8
0
  6
Continuous
 62
     7
100
AcDbLine
 10
-55.07757595922973
 20
271.6219131324374
 30
0.0
 11
-55.07757595922973
 21
268.3784253569512
 31
0.0
  0
LINE
  5
237
330
1F
100
AcDbEntity
  8
0
  6
Continuous
 62
     7
100
AcDbLine
 10
-46.59229458499115
 20
261.9079550025265
 30
0.0
 11
-55.07757595922973
 21
266.1505956896458
 31
0.0
  0
LINE
  5
238
330
1F
100
AcDbEntity
  8
0
  6
Continuous
 62
     7
100
AcDbLine
 10
-54.37046917804318
 20
271.9754665230307
 30
0.0
 11
-55.07757595922973
 21
271.6219131324374
 31
0.0
  0
LINE
  5
239
330
1F
100
AcDbEntity
  8
0
  6
Continuous
 62
     7
100
AcDbLine
 10
-55.07757595922973
 20
266.1505956896458
 30
0.0
 11
-55.07757595922979
 21
256.9860838084804
 31
0.0
  0
LINE
  5
23A
330
1F
100
AcDbEntity
  8
0
  6
Continuous
 62
     7
100
AcDbLine
 10
-32.45015896126026
 20
239.9999089147073
 30
0.0
 11
-43.05676067905844
 21
245.3032097736064
 31
0.0
  0
LINE
  5
23B
330
1F
100
AcDbEntity
  8
0
  6
Continuous
 62
     7
100
AcDbLine
 10
-28.55052795021751
 20
245.2113494489256
 30
0.0
 11
-30.15206192240399
 21
246.0121164350188
 31
0.0
  0
LINE
  5
23C
330
1F
100
AcDbEntity
  8
0
  6
Continuous
 62
     7
100
AcDbLine
 10
-31.03594539888715
 20
241.8908783448741
 30
0.0
 11
-29.05604641156484
 21
242.8808278385353
 31
0.0
  0
LINE
  5
23D
330
1F
100
AcDbEntity
  8
0
  6
Continuous
 62
     2
100
AcDbLine
 10
-29.44495514121743
 20
245.1545458744946
 30
0.0
 11
-30.15206192240399
 21
245.5080992650879
 31
0.0
  0
LINE
  5
23E
330
1F
100
AcDbEntity
  8
0
  6
Continuous
 62
     2
100
AcDbLine
 10
-29.79850853181065
 20
244.977769179198
 30
0.0
 11
-30.14491869332446
 21
245.1509742599549
 31
0.0
  0
LINE
  5
23F
330
1F
100
AcDbEntity
  8
0
  6
Continuous
 62
     7
100
AcDbLine
 10
-29.44495514121743
 20
245.1545458744946
 30
0.0
 11
-29.79850853181065
 21
244.977769179198
 31
0.0
  0
LINE
  5
240
330
1F
100
AcDbEntity
  8
0
  6
Continuous
 62
     7
100
AcDbLine
 10
-30.15206192240399
 20
245.2340051857936
 30
0.0
 11
-30.15206192240399
 21
249.6940360152834
 31
0.0
  0
LINE
  5
241
330
1F
100
AcDbEntity
  8
0
  6
Continuous
 62
     2
100
AcDbLine
 10
-28.91462505532749
 20
242.778333435897
 30
0.0
 11
-29.08783013608436
 21
242.8649359762755
 31
0.0
  0
LINE
  5
242
330
1F
100
AcDbEntity
  8
0
  6
Continuous
 62
     7
100
AcDbLine
 10
-31.03594539888715
 20
250.4212285721508
 30
0.0
 11
-31.03594539888715
 21
241.8908783448741
 31
0.0
  0
LINE
  5
243
330
1F
100
AcDbEntity
  8
0
  6
Continuous
 62
     7
100
AcDbLine
 10
-28.91462505532749
 20
242.778333435897
 30
0.0
 11
-28.91462505532749
 21
240.3534623053006
 31
0.0
  0
LINE
  5
244
330
1F
100
AcDbEntity
  8
0
  6
Continuous
 62
     7
100
AcDbLine
 10
-30.3288386177006
 20
241.0605690864871
 30
0.0
 11
-30.3288386177006
 21
242.2444317354674
 31
0.0
  0
LINE
  5
245
330
1F
100
AcDbEntity
  8
0
  6
Continuous
 62
     7
100
AcDbLine
 10
-30.3288386177006
 20
241.0605690864871
 30
0.0
 11
-28.91462505532749
 21
240.3534623053006
 31
0.0
  0
LINE
  5
246
330
1F
100
AcDbEntity
  8
0
  6
Continuous
 62
     7
100
AcDbLine
 10
-32.45015896126026
 20
239.9999089147073
 30
0.0
 11
-32.45015896126026
 21
242.5979851260606
 31
0.0
  0
LINE
  5
247
330
1F
100
AcDbEntity
  8
0
  6
Continuous
 62
     7
100
AcDbLine
 10
-31.03594539888715
 20
241.8908783448741
 30
0.0
 11
-32.45015896126026
 21
242.5979851260606
 31
0.0
  0
LINE
  5
248
330
1F
100
AcDbEntity
  8
0
  6
Continuous
 62
     7
100
AcDbLine
 10
-30.3288386177006
 20
241.0605690864871
 30
0.0
 11
-32.45015896126026
 21
239.9999089147073
 31
0.0
  0
LINE
  5
249
330
1F
100
AcDbEntity
  8
0
  6
Continuous
 62
     7
100
AcDbLine
 10
-11.66121959437569
 20
276.3751407116827
 30
0.0
 11
-22.26782131217394
 21
281.6784415705818
 31
0.0
  0
LINE
  5
24A
330
1F
100
AcDbEntity
  8
0
  6
Continuous
 62
     7
100
AcDbLine
 10
-33.01584438620947
 20
278.0721969865305
 30
0.0
 11
-19.22726215307173
 21
271.1779058699616
 31
0.0
  0
LINE
  5
24B
330
1F
100
AcDbEntity
  8
0
  6
Continuous
 62
     7
100
AcDbLine
 10
-33.01584438620947
 20
276.3401461789616
 30
0.0
 11
-19.22726215307173
 21
269.4458550623926
 31
0.0
  0
LINE
  5
24C
330
1F
100
AcDbEntity
  8
0
  6
Continuous
 62
     7
100
AcDbLine
 10
-55.07757595922973
 20
275.5623287196564
 30
0.0
 11
-43.05676067905844
 21
269.5519210795707
 31
0.0
  0
LINE
  5
24D
330
1F
100
AcDbEntity
  8
0
  6
Continuous
 62
     7
100
AcDbLine
 10
-27.00543674612382
 20
271.3550433715964
 30
0.0
 11
-26.15690860869998
 21
270.9307793028845
 31
0.0
  0
LINE
  5
24E
330
1F
100
AcDbEntity
  8
0
  6
Continuous
 62
     7
100
AcDbLine
 10
-53.66336239685668
 20
276.2694355008429
 30
0.0
 11
-55.07757595922973
 21
275.5623287196564
 31
0.0
  0
LINE
  5
24F
330
1F
100
AcDbEntity
  8
0
  6
Continuous
 62
     7
100
AcDbLine
 10
-55.07757595922973
 20
275.5623287196564
 30
0.0
 11
-55.07757595922973
 21
274.3065918841692
 31
0.0
  0
LINE
  5
250
330
1F
100
AcDbEntity
  8
0
  6
Continuous
 62
     7
100
AcDbLine
 10
-27.00543674612382
 20
272.2385660417414
 30
0.0
 11
-27.00543674612382
 21
270.5464476570619
 31
0.0
  0
LINE
  5
251
330
1F
100
AcDbEntity
  8
0
  6
Continuous
 62
     7
100
AcDbLine
 10
-26.15690860869998
 20
270.3006909923988
 30
0.0
 11
-27.00543674612382
 21
270.7249550611107
 31
0.0
  0
LINE
  5
252
330
1F
100
AcDbEntity
  8
0
  6
Continuous
 62
     7
100
AcDbLine
 10
-41.64254711668534
 20
271.9910786683261
 30
0.0
 11
-53.66336239685668
 21
278.0014863084118
 31
0.0
  0
LINE
  5
253
330
1F
100
AcDbEntity
  8
0
  6
Continuous
 62
     7
100
AcDbLine
 10
-43.05676067905844
 20
270.9661346419438
 30
0.0
 11
-53.66336239685668
 21
276.2694355008429
 31
0.0
  0
LINE
  5
254
330
1F
100
AcDbEntity
  8
0
  6
Continuous
 62
     7
100
AcDbLine
 10
-53.66336239685668
 20
278.0014863084118
 30
0.0
 11
-53.66336239685668
 21
276.2694355008429
 31
0.0
  0
LINE
  5
255
330
1F
100
AcDbEntity
  8
0
  6
Continuous
 62
     7
100
AcDbLine
 10
-34.11222070338678
 20
275.7919580203729
 30
0.0
 11
-33.01584438620947
 21
276.3401461789616
 31
0.0
  0
LINE
  5
256
330
1F
100
AcDbEntity
  8
0
  6
Continuous
 62
     7
100
AcDbLine
 10
-48.36006153795753
 20
270.9478346735331
 30
0.0
 11
-55.07757595922973
 21
274.3065918841692
 31
0.0
  0
LINE
  5
257
330
1F
100
AcDbEntity
  8
0
  6
Continuous
 62
     7
100
AcDbLine
 10
-33.01584438620947
 20
276.3401461789616
 30
0.0
 11
-33.01584438620947
 21
278.0721969865305
 31
0.0
  0
LINE
  5
258
330
1F
100
AcDbEntity
  8
0
  6
Continuous
 62
     7
100
AcDbLine
 10
-33.01584438620947
 20
278.0721969865305
 30
0.0
 11
-35.84427151095568
 21
276.6579834241572
 31
0.0
  0
LINE
  5
259
330
1F
100
AcDbEntity
  8
0
  6
Continuous
 62
     7
100
AcDbLine
 10
-24.74269504632687
 20
271.5522043340325
 30
0.0
 11
-24.74269504632687
 21
271.6378860840709
 31
0.0
  0
LINE
  5
25A
330
1F
100
AcDbEntity
  8
0
  6
Continuous
 62
     7
100
AcDbLine
 10
-38.88862308868082
 20
278.9410400314076
 30
0.0
 11
-39.32328373972203
 21
279.1583703569283
 31
0.0
  0
LINE
  5
25B
330
1F
100
AcDbEntity
  8
0
  6
Continuous
 62
     7
100
AcDbLine
 10
-39.82694019143358
 20
278.7325130757411
 30
0.0
 11
-39.82694019143358
 21
278.6919076875109
 31
0.0
  0
LINE
  5
25C
330
1F
100
AcDbEntity
  8
0
  6
Continuous
 62
     7
100
AcDbLine
 10
-37.16483516780724
 20
280.020264317365
 30
0.0
 11
-37.72675736499949
 21
278.973858325607
 31
0.0
  0
LINE
  5
25D
330
1F
100
AcDbEntity
  8
0
  6
Continuous
 62
     7
100
AcDbLine
 10
-37.72831753636345
 20
279.0142542600191
 30
0.0
 11
-37.16483516780724
 21
280.0635655875542
 31
0.0
  0
LINE
  5
25E
330
1F
100
AcDbEntity
  8
0
  6
Continuous
 62
     7
100
AcDbLine
 10
-37.05381549305005
 20
280.1190754249328
 30
0.0
 11
-37.66429648016808
 21
278.9822437319215
 31
0.0
  0
LINE
  5
25F
330
1F
100
AcDbEntity
  8
0
  6
Continuous
 62
     7
100
AcDbLine
 10
-37.49032439129493
 20
279.6994106105855
 30
0.0
 11
-37.6311945982014
 21
279.437082726984
 31
0.0
  0
LINE
  5
260
330
1F
100
AcDbEntity
  8
0
  6
Continuous
 62
     7
100
AcDbLine
 10
-37.16483516780724
 20
280.0635655875542
 30
0.0
 11
-37.16483516780724
 21
280.020264317365
 31
0.0
  0
LINE
  5
261
330
1F
100
AcDbEntity
  8
0
  6
Continuous
 62
     7
100
AcDbLine
 10
-37.07887497369492
 20
280.0724099064176
 30
0.0
 11
-37.16483516780724
 21
280.0608697055952
 31
0.0
  0
LINE
  5
262
330
1F
100
AcDbEntity
  8
0
  6
Continuous
 62
     7
100
AcDbLine
 10
-39.82694019143358
 20
278.7325130757411
 30
0.0
 11
-37.72831753636345
 21
279.0142542600191
 31
0.0
  0
LINE
  5
263
330
1F
100
AcDbEntity
  8
0
  6
Continuous
 62
     7
100
AcDbLine
 10
-37.66429648016808
 20
278.9822437319215
 30
0.0
 11
-39.93795986619077
 21
278.6770032383624
 31
0.0
  0
LINE
  5
264
330
1F
100
AcDbEntity
  8
0
  6
Continuous
 62
     2
100
AcDbLine
 10
-38.88862308868082
 20
278.9843413015968
 30
0.0
 11
-38.88862308868082
 21
278.9410400314076
 31
0.0
  0
LINE
  5
265
330
1F
100
AcDbEntity
  8
0
  6
Continuous
 62
     7
100
AcDbLine
 10
-37.74539803305308
 20
279.2567958448026
 30
0.0
 11
-38.69177249929348
 21
279.7299826915615
 31
0.0
  0
LINE
  5
266
330
1F
100
AcDbEntity
  8
0
  6
Continuous
 62
     7
100
AcDbLine
 10
-38.69177249929348
 20
279.7732839617507
 30
0.0
 11
-37.74539803305308
 21
279.3000971149917
 31
0.0
  0
LINE
  5
267
330
1F
100
AcDbEntity
  8
0
  6
Continuous
 62
     7
100
AcDbLine
 10
-37.76240506556272
 20
279.4195219559464
 30
0.0
 11
-38.45292243102293
 21
279.7647806386765
 31
0.0
  0
LINE
  5
268
330
1F
100
AcDbEntity
  8
0
  6
Continuous
 62
     7
100
AcDbLine
 10
-37.6418240769988
 20
279.6764479341624
 30
0.0
 11
-37.74748745045807
 21
279.4796826388072
 31
0.0
  0
LINE
  5
269
330
1F
100
AcDbEntity
  8
0
  6
Continuous
 62
     7
100
AcDbLine
 10
-37.74748745045807
 20
279.5229839089964
 30
0.0
 11
-37.6418240769988
 21
279.7197492043516
 31
0.0
  0
LINE
  5
26A
330
1F
100
AcDbEntity
  8
0
  6
Continuous
 62
     7
100
AcDbLine
 10
-37.66398011059616
 20
279.7585328456931
 30
0.0
 11
-37.94128271722391
 21
279.6198815423793
 31
0.0
  0
LINE
  5
26B
330
1F
100
AcDbEntity
  8
0
  6
Continuous
 62
     7
100
AcDbLine
 10
-37.74748745045807
 20
279.4796826388072
 30
0.0
 11
-37.94128271722391
 21
279.5765802721902
 31
0.0
  0
LINE
  5
26C
330
1F
100
AcDbEntity
  8
0
  6
Continuous
 62
     7
100
AcDbLine
 10
-37.94128271722391
 20
279.6198815423793
 30
0.0
 11
-37.74748745045807
 21
279.5229839089964
 31
0.0
  0
LINE
  5
26D
330
1F
100
AcDbEntity
  8
0
  6
Continuous
 62
     7
100
AcDbLine
 10
-38.05220325815699
 20
279.6320405426567
 30
0.0
 11
-38.24599852492284
 21
279.7289381760396
 31
0.0
  0
LINE
  5
26E
330
1F
100
AcDbEntity
  8
0
  6
Continuous
 62
     7
100
AcDbLine
 10
-38.05220325815699
 20
279.6753418128459
 30
0.0
 11
-38.05220325815699
 21
279.6320405426567
 31
0.0
  0
LINE
  5
26F
330
1F
100
AcDbEntity
  8
0
  6
Continuous
 62
     2
100
AcDbLine
 10
-37.6418240769988
 20
279.7197492043516
 30
0.0
 11
-37.6418240769988
 21
279.6764479341624
 31
0.0
  0
LINE
  5
270
330
1F
100
AcDbEntity
  8
0
  6
Continuous
 62
     7
100
AcDbLine
 10
-37.74748745045807
 20
279.5229839089964
 30
0.0
 11
-37.74748745045807
 21
279.4796826388072
 31
0.0
  0
LINE
  5
271
330
1F
100
AcDbEntity
  8
0
  6
Continuous
 62
     7
100
AcDbLine
 10
-37.94128271722391
 20
279.6198815423793
 30
0.0
 11
-37.94128271722391
 21
279.5765802721902
 31
0.0
  0
LINE
  5
272
330
1F
100
AcDbEntity
  8
0
  6
Continuous
 62
     7
100
AcDbLine
 10
-38.55585996072753
 20
279.1507228655735
 30
0.0
 11
-39.24637693982655
 21
279.4959817414842
 31
0.0
  0
LINE
  5
273
330
1F
100
AcDbEntity
  8
0
  6
Continuous
 62
     7
100
AcDbLine
 10
-38.24599852492284
 20
279.7722394462288
 30
0.0
 11
-38.05220325815699
 21
279.6753418128459
 31
0.0
  0
LINE
  5
274
330
1F
100
AcDbEntity
  8
0
  6
Continuous
 62
     7
100
AcDbLine
 10
-38.24599852492284
 20
279.7722394462288
 30
0.0
 11
-38.24599852492284
 21
279.7289381760396
 31
0.0
  0
LINE
  5
275
330
1F
100
AcDbEntity
  8
0
  6
Continuous
 62
     7
100
AcDbLine
 10
-38.98699264096044
 20
279.477210248341
 30
0.0
 11
-38.98699264096044
 21
279.4339089781519
 31
0.0
  0
LINE
  5
276
330
1F
100
AcDbEntity
  8
0
  6
Continuous
 62
     7
100
AcDbLine
 10
-38.79817378173001
 20
279.5058811125133
 30
0.0
 11
-39.18540098895923
 21
279.5195301515564
 31
0.0
  0
LINE
  5
277
330
1F
100
AcDbEntity
  8
0
  6
Continuous
 62
     7
100
AcDbLine
 10
-38.79817378173001
 20
279.5491823827024
 30
0.0
 11
-38.82547185981625
 21
279.742795986317
 31
0.0
  0
LINE
  5
278
330
1F
100
AcDbEntity
  8
0
  6
Continuous
 62
     2
100
AcDbLine
 10
-38.69177249929348
 20
279.7732839617507
 30
0.0
 11
-38.69177249929348
 21
279.7299826915615
 31
0.0
  0
LINE
  5
279
330
1F
100
AcDbEntity
  8
0
  6
Continuous
 62
     7
100
AcDbLine
 10
-39.18540098895923
 20
279.5628314217456
 30
0.0
 11
-38.79817378173001
 21
279.5491823827024
 31
0.0
  0
LINE
  5
27A
330
1F
100
AcDbEntity
  8
0
  6
Continuous
 62
     7
100
AcDbLine
 10
-38.57089161306212
 20
279.0040163789005
 30
0.0
 11
-39.22937001162936
 21
279.3332555781841
 31
0.0
  0
LINE
  5
27B
330
1F
100
AcDbEntity
  8
0
  6
Continuous
 62
     7
100
AcDbLine
 10
-38.98699264096044
 20
279.477210248341
 30
0.0
 11
-38.44493891807647
 21
279.2061833868989
 31
0.0
  0
LINE
  5
27C
330
1F
100
AcDbEntity
  8
0
  6
Continuous
 62
     7
100
AcDbLine
 10
-38.62899232874011
 20
279.4645916562075
 30
0.0
 11
-38.98699264096044
 21
279.477210248341
 31
0.0
  0
LINE
  5
27D
330
1F
100
AcDbEntity
  8
0
  6
Continuous
 62
     7
100
AcDbLine
 10
-39.2293700116293
 20
279.3765568483733
 30
0.0
 11
-38.57089161306212
 21
279.0473176490896
 31
0.0
  0
LINE
  5
27E
330
1F
100
AcDbEntity
  8
0
  6
Continuous
 62
     7
100
AcDbLine
 10
-39.32328373972203
 20
279.2016716271174
 30
0.0
 11
-38.88862308868082
 21
278.9843413015968
 31
0.0
  0
LINE
  5
27F
330
1F
100
AcDbEntity
  8
0
  6
Continuous
 62
     7
100
AcDbLine
 10
-38.44493891807647
 20
279.1628821167097
 30
0.0
 11
-38.98699264096044
 21
279.4339089781519
 31
0.0
  0
LINE
  5
280
330
1F
100
AcDbEntity
  8
0
  6
Continuous
 62
     2
100
AcDbLine
 10
-39.2293700116293
 20
279.3765568483733
 30
0.0
 11
-39.22937001162936
 21
279.3332555781841
 31
0.0
  0
LINE
  5
281
330
1F
100
AcDbEntity
  8
0
  6
Continuous
 62
     2
100
AcDbLine
 10
-39.18540098895923
 20
279.5628314217456
 30
0.0
 11
-39.18540098895923
 21
279.5195301515564
 31
0.0
  0
LINE
  5
282
330
1F
100
AcDbEntity
  8
0
  6
Continuous
 62
     7
100
AcDbLine
 10
-38.79817378173001
 20
279.5491823827024
 30
0.0
 11
-38.79817378173001
 21
279.5058811125133
 31
0.0
  0
LINE
  5
283
330
1F
100
AcDbEntity
  8
0
  6
Continuous
 62
     7
100
AcDbLine
 10
-38.65422951300715
 20
279.6435918123176
 30
0.0
 11
-38.65422951300715
 21
279.6002905421285
 31
0.0
  0
LINE
  5
284
330
1F
100
AcDbEntity
  8
0
  6
Continuous
 62
     7
100
AcDbLine
 10
-38.65422951300715
 20
279.6435918123176
 30
0.0
 11
-38.62899232874011
 21
279.4645916562075
 31
0.0
  0
LINE
  5
285
330
1F
100
AcDbEntity
  8
0
  6
Continuous
 62
     7
100
AcDbLine
 10
-38.63512785392808
 20
279.4648079177224
 30
0.0
 11
-38.65422951300715
 21
279.6002905421285
 31
0.0
  0
LINE
  5
286
330
1F
100
AcDbEntity
  8
0
  6
Continuous
 62
     2
100
AcDbLine
 10
-37.74539803305308
 20
279.3000971149917
 30
0.0
 11
-37.74539803305308
 21
279.2567958448026
 31
0.0
  0
LINE
  5
287
330
1F
100
AcDbEntity
  8
0
  6
Continuous
 62
     7
100
AcDbLine
 10
-38.57089161306212
 20
279.0473176490896
 30
0.0
 11
-37.91511087623738
 21
279.1353565544991
 31
0.0
  0
LINE
  5
288
330
1F
100
AcDbEntity
  8
0
  6
Continuous
 62
     7
100
AcDbLine
 10
-37.77490065152929
 20
279.7706918459706
 30
0.0
 11
-38.05220325815699
 21
279.6320405426567
 31
0.0
  0
LINE
  5
289
330
1F
100
AcDbEntity
  8
0
  6
Continuous
 62
     7
100
AcDbLine
 10
-37.85631907570419
 20
279.2446365936662
 30
0.0
 11
-38.65422951300715
 21
279.6435918123176
 31
0.0
  0
LINE
  5
28A
330
1F
100
AcDbEntity
  8
0
  6
Continuous
 62
     7
100
AcDbLine
 10
-39.32747887907274
 20
279.7705336611846
 30
0.0
 11
-39.9129003855459
 21
278.6803674866885
 31
0.0
  0
LINE
  5
28B
330
1F
100
AcDbEntity
  8
0
  6
Continuous
 62
     7
100
AcDbLine
 10
-39.26345782287737
 20
279.7818244032761
 30
0.0
 11
-39.82694019143358
 21
278.7325130757411
 31
0.0
  0
LINE
  5
28C
330
1F
100
AcDbEntity
  8
0
  6
Continuous
 62
     7
100
AcDbLine
 10
-39.93795986619077
 20
278.6770032383624
 30
0.0
 11
-39.32747887907274
 21
279.8138349313738
 31
0.0
  0
LINE
  5
28D
330
1F
100
AcDbEntity
  8
0
  6
Continuous
 62
     7
100
AcDbLine
 10
-39.26501799424133
 20
279.7789190674991
 30
0.0
 11
-39.32747887907274
 21
279.7705336611846
 31
0.0
  0
LINE
  5
28E
330
1F
100
AcDbEntity
  8
0
  6
Continuous
 62
     7
100
AcDbLine
 10
-38.99954413133193
 20
278.9288807802712
 30
0.0
 11
-39.43420478237309
 21
279.1462111057918
 31
0.0
  0
LINE
  5
28F
330
1F
100
AcDbEntity
  8
0
  6
Continuous
 62
     7
100
AcDbLine
 10
-38.05220325815699
 20
279.6753418128459
 30
0.0
 11
-37.77490065152929
 21
279.8139931161597
 31
0.0
  0
LINE
  5
290
330
1F
100
AcDbEntity
  8
0
  6
Continuous
 62
     7
100
AcDbLine
 10
-37.85246793421246
 20
279.8250711329584
 30
0.0
 11
-38.24599852492284
 21
279.7722394462288
 31
0.0
  0
LINE
  5
291
330
1F
100
AcDbEntity
  8
0
  6
Continuous
 62
     2
100
AcDbLine
 10
-37.77490065152929
 20
279.8139931161597
 30
0.0
 11
-37.77490065152929
 21
279.7706918459706
 31
0.0
  0
LINE
  5
292
330
1F
100
AcDbEntity
  8
0
  6
Continuous
 62
     7
100
AcDbLine
 10
-37.16483516780724
 20
280.0635655875542
 30
0.0
 11
-39.26345782287737
 21
279.7818244032761
 31
0.0
  0
LINE
  5
293
330
1F
100
AcDbEntity
  8
0
  6
Continuous
 62
     7
100
AcDbLine
 10
-39.32747887907274
 20
279.8138349313738
 30
0.0
 11
-37.05381549305005
 21
280.1190754249328
 31
0.0
  0
LINE
  5
294
330
1F
100
AcDbEntity
  8
0
  6
Continuous
 62
     7
100
AcDbLine
 10
-38.41780078551219
 20
279.8303856797409
 30
0.0
 11
-37.89314512174465
 21
279.9008209758103
 31
0.0
  0
LINE
  5
295
330
1F
100
AcDbEntity
  8
0
  6
Continuous
 62
     2
100
AcDbLine
 10
-37.89314512174465
 20
279.9008209758103
 30
0.0
 11
-37.89314512174465
 21
279.8575197056211
 31
0.0
  0
LINE
  5
296
330
1F
100
AcDbEntity
  8
0
  6
Continuous
 62
     7
100
AcDbLine
 10
-37.89314512174465
 20
279.8575197056211
 30
0.0
 11
-38.41780078551219
 21
279.7870844095517
 31
0.0
  0
LINE
  5
297
330
1F
100
AcDbEntity
  8
0
  6
Continuous
 62
     2
100
AcDbLine
 10
-38.41780078551219
 20
279.8303856797409
 30
0.0
 11
-38.41780078551219
 21
279.7870844095517
 31
0.0
  0
LINE
  5
298
330
1F
100
AcDbEntity
  8
0
  6
Continuous
 62
     7
100
AcDbLine
 10
-39.32747887907274
 20
279.8138349313738
 30
0.0
 11
-39.32747887907274
 21
279.7705336611846
 31
0.0
  0
LINE
  5
299
330
1F
100
AcDbEntity
  8
0
  6
Continuous
 62
     7
100
AcDbLine
 10
-37.72831753636345
 20
279.0142542600191
 30
0.0
 11
-37.72831753636345
 21
278.973648871789
 31
0.0
  0
LINE
  5
29A
330
1F
100
AcDbEntity
  8
0
  6
Continuous
 62
     7
100
AcDbLine
 10
-38.64977365740705
 20
278.9758376600242
 30
0.0
 11
-39.34029105428041
 21
279.3210963270477
 31
0.0
  0
LINE
  5
29B
330
1F
100
AcDbEntity
  8
0
  6
Continuous
 62
     2
100
AcDbLine
 10
-38.44493891807647
 20
279.2061833868989
 30
0.0
 11
-38.44493891807647
 21
279.1628821167097
 31
0.0
  0
LINE
  5
29C
330
1F
100
AcDbEntity
  8
0
  6
Continuous
 62
     2
100
AcDbLine
 10
-39.32328373972203
 20
279.2016716271174
 30
0.0
 11
-39.32328373972203
 21
279.1583703569283
 31
0.0
  0
LINE
  5
29D
330
1F
100
AcDbEntity
  8
0
  6
Continuous
 62
     7
100
AcDbLine
 10
-37.91511087623738
 20
279.0920552843099
 30
0.0
 11
-38.57089161306212
 21
279.0040163789005
 31
0.0
  0
LINE
  5
29E
330
1F
100
AcDbEntity
  8
0
  6
Continuous
 62
     7
100
AcDbLine
 10
-37.87443367718512
 20
279.0596066901945
 30
0.0
 11
-38.57397456220852
 21
278.9656929621018
 31
0.0
  0
LINE
  5
29F
330
1F
100
AcDbEntity
  8
0
  6
Continuous
 62
     7
100
AcDbLine
 10
-38.57089161306212
 20
279.0473176490896
 30
0.0
 11
-38.57089161306212
 21
279.0040163789005
 31
0.0
  0
LINE
  5
2A0
330
1F
100
AcDbEntity
  8
0
  6
Continuous
 62
     2
100
AcDbLine
 10
-37.91511087623738
 20
279.1353565544991
 30
0.0
 11
-37.91511087623738
 21
279.0920552843099
 31
0.0
  0
LINE
  5
2A1
330
1F
100
AcDbEntity
  8
0
  6
Continuous
 62
     7
100
AcDbLine
 10
-52.07237213918691
 20
278.7969814372467
 30
0.0
 11
-53.66336239685668
 21
278.0014863084118
 31
0.0
  0
LINE
  5
2A2
330
1F
100
AcDbEntity
  8
0
  6
Continuous
 62
     7
100
AcDbLine
 10
-45.92054314286398
 20
279.7515755918485
 30
0.0
 11
-49.59749840503403
 21
277.9130979607635
 31
0.0
  0
LINE
  5
2A3
330
1F
100
AcDbEntity
  8
0
  6
Continuous
 62
     2
100
AcDbLine
 10
-49.59749840503403
 20
277.9130979607635
 30
0.0
 11
-49.59749840503403
 21
279.6451487683323
 31
0.0
  0
LINE
  5
2A4
330
1F
100
AcDbEntity
  8
0
  6
Continuous
 62
     2
100
AcDbLine
 10
-50.30460518622058
 20
277.9130979607635
 30
0.0
 11
-50.30460518622058
 21
279.6451487683323
 31
0.0
  0
LINE
  5
2A5
330
1F
100
AcDbEntity
  8
0
  6
Continuous
 62
     7
100
AcDbLine
 10
-52.07237213918691
 20
280.5290322448155
 30
0.0
 11
-52.07237213918691
 21
278.7969814372467
 31
0.0
  0
LINE
  5
2A6
330
1F
100
AcDbEntity
  8
0
  6
Continuous
 62
     7
100
AcDbLine
 10
-50.30460518622058
 20
277.9130979607635
 30
0.0
 11
-52.07237213918691
 21
278.7969814372467
 31
0.0
  0
LINE
  5
2A7
330
1F
100
AcDbEntity
  8
0
  6
Continuous
 62
     7
100
AcDbLine
 10
-50.30460518622058
 20
279.6451487683323
 30
0.0
 11
-52.07237213918691
 21
280.5290322448155
 31
0.0
  0
LINE
  5
2A8
330
1F
100
AcDbEntity
  8
0
  6
Continuous
 62
     7
100
AcDbLine
 10
-45.77409653345725
 20
279.9283522871451
 30
0.0
 11
-45.7740965334572
 21
281.660403094714
 31
0.0
  0
LINE
  5
2A9
330
1F
100
AcDbEntity
  8
0
  6
Continuous
 62
     7
100
AcDbLine
 10
-22.26782131217394
 20
281.6784415705818
 30
0.0
 11
-23.68203487454704
 21
280.9713347893953
 31
0.0
  0
LINE
  5
2AA
330
1F
100
AcDbEntity
  8
0
  6
Continuous
 62
     7
100
AcDbLine
 10
-47.6883100958303
 20
282.7210632664938
 30
0.0
 11
-52.07237213918691
 21
280.5290322448155
 31
0.0
  0
LINE
  5
2AB
330
1F
100
AcDbEntity
  8
0
  6
Continuous
 62
     7
100
AcDbLine
 10
-45.92054314286398
 20
281.8371797900106
 30
0.0
 11
-47.6883100958303
 21
282.7210632664938
 31
0.0
  0
LINE
  5
2AC
330
1F
100
AcDbEntity
  8
0
  6
Continuous
 62
     7
100
AcDbLine
 10
-49.59749840503403
 20
279.6451487683323
 30
0.0
 11
-45.92054314286398
 21
281.4836263994174
 31
0.0
  0
LINE
  5
2AD
330
1F
100
AcDbEntity
  8
0
  6
Continuous
 62
     2
100
AcDbLine
 10
-45.92054314286398
 20
279.7515755918485
 30
0.0
 11
-45.92054314286398
 21
281.4836263994174
 31
0.0
  0
LINE
  5
2AE
330
1F
100
AcDbEntity
  8
0
  6
Continuous
 62
     7
100
AcDbLine
 10
-45.95625928826146
 20
281.8550378627094
 30
0.0
 11
-41.67790245574466
 21
283.9942162789678
 31
0.0
  0
LINE
  5
2AF
330
1F
100
AcDbEntity
  8
0
  6
Continuous
 62
     2
100
AcDbLine
 10
-12.2269050193249
 20
272.0800082254817
 30
0.0
 11
-12.36546908393044
 21
272.1492902577845
 31
0.0
  0
LINE
  5
2B0
330
1F
100
AcDbEntity
  8
0
  6
Continuous
 62
     7
100
AcDbLine
 10
-11.66121959437569
 20
276.3751407116827
 30
0.0
 11
-11.66121959437569
 21
273.7770645003294
 31
0.0
  0
LINE
  5
2B1
330
1F
100
AcDbEntity
  8
0
  6
Continuous
 62
     7
100
AcDbLine
 10
-12.73242348067223
 20
271.1784285313357
 30
0.0
 11
-15.06999348152422
 21
272.3472135317617
 31
0.0
  0
LINE
  5
2B2
330
1F
100
AcDbEntity
  8
0
  6
Continuous
 62
     2
100
AcDbLine
 10
-13.25220985204541
 20
272.260176132149
 30
0.0
 11
-14.2481390663975
 21
272.7581407393251
 31
0.0
  0
LINE
  5
2B3
330
1F
100
AcDbEntity
  8
0
  6
Continuous
 62
     2
100
AcDbLine
 10
-13.25220985204541
 20
272.8230926446089
 30
0.0
 11
-13.68522255393762
 21
273.039598995555
 31
0.0
  0
LINE
  5
2B4
330
1F
100
AcDbEntity
  8
0
  6
Continuous
 62
     7
100
AcDbLine
 10
-11.66121959437569
 20
273.7770645003294
 30
0.0
 11
-12.36832637556225
 21
273.4235111097361
 31
0.0
  0
LINE
  5
2B5
330
1F
100
AcDbEntity
  8
0
  6
Continuous
 62
     2
100
AcDbLine
 10
-26.0783522434887
 20
251.946948797161
 30
0.0
 11
-26.27318265914326
 21
252.0443640049883
 31
0.0
  0
LINE
  5
2B6
330
1F
100
AcDbEntity
  8
0
  6
Continuous
 62
     7
100
AcDbLine
 10
-25.64615579547913
 20
252.8233158580531
 30
0.0
 11
-30.595903263785
 21
255.298189592206
 31
0.0
  0
LINE
  5
2B7
330
1F
100
AcDbEntity
  8
0
  6
Continuous
 62
     2
100
AcDbLine
 10
-26.31697618872911
 20
252.7807131772298
 30
0.0
 11
-31.26672365703493
 21
255.2555869113827
 31
0.0
  0
LINE
  5
2B8
330
1F
100
AcDbEntity
  8
0
  6
Continuous
 62
     7
100
AcDbLine
 10
-34.67170478262293
 20
256.3676789108861
 30
0.0
 11
-34.70706012168213
 21
256.3853565804157
 31
0.0
  0
LINE
  5
2B9
330
1F
100
AcDbEntity
  8
0
  6
Continuous
 62
     7
100
AcDbLine
 10
-35.02525817321615
 20
256.2342034857787
 30
0.0
 11
-34.67170478262293
 21
256.4109801810753
 31
0.0
  0
LINE
  5
2BA
330
1F
100
AcDbEntity
  8
0
  6
Continuous
 62
     7
100
AcDbLine
 10
-34.67170478262293
 20
256.4109801810753
 30
0.0
 11
-34.67170478262293
 21
256.3676789108861
 31
0.0
  0
LINE
  5
2BB
330
1F
100
AcDbEntity
  8
0
  6
Continuous
 62
     7
100
AcDbLine
 10
-34.86615914744911
 20
256.3058070675322
 30
0.0
 11
-34.86615914744917
 21
256.2704517284729
 31
0.0
  0
LINE
  5
2BC
330
1F
100
AcDbEntity
  8
0
  6
Continuous
 62
     7
100
AcDbLine
 10
-34.70706012168213
 20
256.3853565804157
 30
0.0
 11
-34.86615914744911
 21
256.3058070675322
 31
0.0
  0
LINE
  5
2BD
330
1F
100
AcDbEntity
  8
0
  6
Continuous
 62
     7
100
AcDbLine
 10
-34.67170478262293
 20
256.3676789108861
 30
0.0
 11
-34.83080380838985
 21
256.2881293980026
 31
0.0
  0
LINE
  5
2BE
330
1F
100
AcDbEntity
  8
0
  6
Continuous
 62
     7
100
AcDbLine
 10
-34.70706012168213
 20
256.3933025115457
 30
0.0
 11
-34.70706012168213
 21
256.3853565804157
 31
0.0
  0
LINE
  5
2BF
330
1F
100
AcDbEntity
  8
0
  6
Continuous
 62
     7
100
AcDbLine
 10
-34.86615914744917
 20
256.2704517284729
 30
0.0
 11
-34.90151448650843
 21
256.2881293980026
 31
0.0
  0
LINE
  5
2C0
330
1F
100
AcDbEntity
  8
0
  6
Continuous
 62
     7
100
AcDbLine
 10
-34.83080380838985
 20
256.2881293980026
 30
0.0
 11
-34.86615914744911
 21
256.3058070675322
 31
0.0
  0
LINE
  5
2C1
330
1F
100
AcDbEntity
  8
0
  6
Continuous
 62
     7
100
AcDbLine
 10
-34.83080380838985
 20
256.2881293980026
 30
0.0
 11
-34.83080380838985
 21
254.20966842892
 31
0.0
  0
LINE
  5
2C2
330
1F
100
AcDbEntity
  8
0
  6
Continuous
 62
     7
100
AcDbLine
 10
-34.86615914744911
 20
254.2273460984496
 30
0.0
 11
-34.86615914744917
 21
256.2704517284729
 31
0.0
  0
LINE
  5
2C3
330
1F
100
AcDbEntity
  8
0
  6
Continuous
 62
     7
100
AcDbLine
 10
-34.86615914744917
 20
254.1919907593903
 30
0.0
 11
-34.86615914744911
 21
254.2273460984496
 31
0.0
  0
LINE
  5
2C4
330
1F
100
AcDbEntity
  8
0
  6
Continuous
 62
     7
100
AcDbLine
 10
-34.70706012168213
 20
254.2635943411438
 30
0.0
 11
-35.02525817321615
 21
254.1044953153768
 31
0.0
  0
LINE
  5
2C5
330
1F
100
AcDbEntity
  8
0
  6
Continuous
 62
     7
100
AcDbLine
 10
-34.67170478262293
 20
254.2459166716142
 30
0.0
 11
-35.02525817321615
 21
254.0691399763176
 31
0.0
  0
LINE
  5
2C6
330
1F
100
AcDbEntity
  8
0
  6
Continuous
 62
     7
100
AcDbLine
 10
-34.83080380838985
 20
254.20966842892
 30
0.0
 11
-34.67170478262293
 21
254.2892179418034
 31
0.0
  0
LINE
  5
2C7
330
1F
100
AcDbEntity
  8
0
  6
Continuous
 62
     7
100
AcDbLine
 10
-34.67170478262293
 20
254.2892179418034
 30
0.0
 11
-34.67170478262293
 21
254.2459166716142
 31
0.0
  0
LINE
  5
2C8
330
1F
100
AcDbEntity
  8
0
  6
Continuous
 62
     7
100
AcDbLine
 10
-34.70706012168213
 20
254.2715402722738
 30
0.0
 11
-34.70706012168213
 21
254.2635943411438
 31
0.0
  0
LINE
  5
2C9
330
1F
100
AcDbEntity
  8
0
  6
Continuous
 62
     7
100
AcDbLine
 10
-34.83080380838985
 20
254.20966842892
 30
0.0
 11
-34.86615914744911
 21
254.2273460984496
 31
0.0
  0
LINE
  5
2CA
330
1F
100
AcDbEntity
  8
0
  6
Continuous
 62
     7
100
AcDbLine
 10
-35.02525817321615
 20
254.0691399763176
 30
0.0
 11
-35.02525817321615
 21
254.1124412465068
 31
0.0
  0
LINE
  5
2CB
330
1F
100
AcDbEntity
  8
0
  6
Continuous
 62
     7
100
AcDbLine
 10
-35.02525817321615
 20
254.1124412465068
 30
0.0
 11
-34.86615914744917
 21
254.1919907593903
 31
0.0
  0
LINE
  5
2CC
330
1F
100
AcDbEntity
  8
0
  6
Continuous
 62
     7
100
AcDbLine
 10
-35.02525817321615
 20
256.2262575546487
 30
0.0
 11
-34.90151448650843
 21
256.2881293980026
 31
0.0
  0
LINE
  5
2CD
330
1F
100
AcDbEntity
  8
0
  6
Continuous
 62
     7
100
AcDbLine
 10
-34.86615914744917
 20
256.2704517284729
 30
0.0
 11
-35.02525817321615
 21
256.1909022155895
 31
0.0
  0
LINE
  5
2CE
330
1F
100
AcDbEntity
  8
0
  6
Continuous
 62
     7
100
AcDbLine
 10
-35.02525817321615
 20
256.1909022155895
 30
0.0
 11
-35.02525817321615
 21
256.2342034857787
 31
0.0
  0
LINE
  5
2CF
330
1F
100
AcDbEntity
  8
0
  6
Continuous
 62
     7
100
AcDbLine
 10
-34.67170478262293
 20
254.2459166716142
 30
0.0
 11
-34.70706012168213
 21
254.2635943411438
 31
0.0
  0
LINE
  5
2D0
330
1F
100
AcDbEntity
  8
0
  6
Continuous
 62
     7
100
AcDbLine
 10
-31.26672365703493
 20
255.2555869113827
 30
0.0
 11
-35.98569286719297
 21
252.8961023063037
 31
0.0
  0
LINE
  5
2D1
330
1F
100
AcDbEntity
  8
0
  6
Continuous
 62
     7
100
AcDbLine
 10
-15.1967535003084
 20
262.0958554255481
 30
0.0
 11
-15.1967535003084
 21
252.1621455511159
 31
0.0
  0
LINE
  5
2D2
330
1F
100
AcDbEntity
  8
0
  6
Continuous
 62
     7
100
AcDbLine
 10
-14.96597524216074
 20
262.1801228867871
 30
0.0
 11
-10.24700603200259
 21
264.5396074918661
 31
0.0
  0
LINE
  5
2D3
330
1F
100
AcDbEntity
  8
0
  6
Continuous
 62
     2
100
AcDbLine
 10
-14.89820187940896
 20
262.9501311613798
 30
0.0
 11
-15.28394931528774
 21
263.1430048793192
 31
0.0
  0
LINE
  5
2D4
330
1F
100
AcDbEntity
  8
0
  6
Continuous
 62
     7
100
AcDbLine
 10
-15.1967535003084
 20
252.1621455511159
 30
0.0
 11
-22.79913595799675
 21
248.3609543222718
 31
0.0
  0
LINE
  5
2D5
330
1F
100
AcDbEntity
  8
0
  6
Continuous
 62
     7
100
AcDbLine
 10
-21.63147210067214
 20
246.4609451674956
 30
0.0
 11
-25.39778426475269
 21
252.5894448608013
 31
0.0
  0
LINE
  5
2D6
330
1F
100
AcDbEntity
  8
0
  6
Continuous
 62
     7
100
AcDbLine
 10
-26.0783522434887
 20
251.946948797161
 30
0.0
 11
-22.33261825233873
 21
245.851933669393
 31
0.0
  0
LINE
  5
2D7
330
1F
100
AcDbEntity
  8
0
  6
Continuous
 62
     7
100
AcDbLine
 10
-28.03074157884433
 20
242.1377434194081
 30
0.0
 11
-28.03074157884433
 21
244.1296018481123
 31
0.0
  0
LINE
  5
2D8
330
1F
100
AcDbEntity
  8
0
  6
Continuous
 62
     7
100
AcDbLine
 10
-22.05568927781795
 20
243.7829301940554
 30
0.0
 11
-22.05568927781795
 21
245.5149810016242
 31
0.0
  0
LINE
  5
2D9
330
1F
100
AcDbEntity
  8
0
  6
Continuous
 62
     7
100
AcDbLine
 10
-19.79294757802106
 20
269.1630123499181
 30
0.0
 11
-19.79294757802106
 21
269.0773305998796
 31
0.0
  0
LINE
  5
2DA
330
1F
100
AcDbEntity
  8
0
  6
Continuous
 62
     7
100
AcDbLine
 10
-26.15690860869998
 20
270.3006909923988
 30
0.0
 11
-26.15690860869998
 21
270.9307793028845
 31
0.0
  0
LINE
  5
2DB
330
1F
100
AcDbEntity
  8
0
  6
Continuous
 62
     7
100
AcDbLine
 10
-26.15690860869998
 20
270.9307793028845
 30
0.0
 11
-24.74269504632687
 21
271.6378860840709
 31
0.0
  0
LINE
  5
2DC
330
1F
100
AcDbEntity
  8
0
  6
Continuous
 62
     7
100
AcDbLine
 10
-19.79294757802106
 20
269.1630123499181
 30
0.0
 11
-24.74269504632687
 21
271.6378860840709
 31
0.0
  0
LINE
  5
2DD
330
1F
100
AcDbEntity
  8
0
  6
Continuous
 62
     2
100
AcDbLine
 10
-19.79294757802106
 20
269.0773305998796
 30
0.0
 11
-24.74269504632687
 21
271.5522043340325
 31
0.0
  0
LINE
  5
2DE
330
1F
100
AcDbEntity
  8
0
  6
Continuous
 62
     7
100
AcDbLine
 10
-15.63679563541061
 20
262.1375202059639
 30
0.0
 11
-20.58654310371642
 21
264.6123939401168
 31
0.0
  0
LINE
  5
2DF
330
1F
100
AcDbEntity
  8
0
  6
Continuous
 62
     7
100
AcDbLine
 10
-19.22726215307173
 20
271.1779058699616
 30
0.0
 11
-12.36832637556225
 21
274.6073737587164
 31
0.0
  0
LINE
  5
2E0
330
1F
100
AcDbEntity
  8
0
  6
Continuous
 62
     7
100
AcDbLine
 10
-12.36832637556225
 20
272.1825026281199
 30
0.0
 11
-12.36832637556225
 21
274.6073737587164
 31
0.0
  0
LINE
  5
2E1
330
1F
100
AcDbEntity
  8
0
  6
Continuous
 62
     7
100
AcDbLine
 10
-18.33753856256672
 20
270.7134409912404
 30
0.0
 11
-13.60576324263874
 21
273.0793286512045
 31
0.0
  0
LINE
  5
2E2
330
1F
100
AcDbEntity
  8
0
  6
Continuous
 62
     7
100
AcDbLine
 10
-13.78253993793535
 20
275.3144805399029
 30
0.0
 11
-12.36832637556225
 21
274.6073737587164
 31
0.0
  0
LINE
  5
2E3
330
1F
100
AcDbEntity
  8
0
  6
Continuous
 62
     7
100
AcDbLine
 10
-13.78253993793535
 20
275.3144805399029
 30
0.0
 11
-11.66121959437569
 21
276.3751407116827
 31
0.0
  0
LINE
  5
2E4
330
1F
100
AcDbEntity
  8
0
  6
Continuous
 62
     2
100
AcDbLine
 10
-22.33261825233873
 20
245.851933669393
 30
0.0
 11
-30.14820746917874
 21
249.7597282778131
 31
0.0
  0
LINE
  5
2E5
330
1F
100
AcDbEntity
  8
0
  6
Continuous
 62
     2
100
AcDbLine
 10
-22.94541286832308
 20
244.2473950727765
 30
0.0
 11
-30.15206192240399
 21
247.850719599817
 31
0.0
  0
LINE
  5
2E6
330
1F
100
AcDbEntity
  8
0
  6
Continuous
 62
     7
100
AcDbLine
 10
-28.91462505532749
 20
240.3534623053006
 30
0.0
 11
-22.05568927781795
 21
243.7829301940554
 31
0.0
  0
LINE
  5
2E7
330
1F
100
AcDbEntity
  8
0
  6
Continuous
 62
     2
100
AcDbLine
 10
-27.67718818825105
 20
241.8815074128125
 30
0.0
 11
-28.02359834976485
 21
242.0547124935694
 31
0.0
  0
LINE
  5
2E8
330
1F
100
AcDbEntity
  8
0
  6
Continuous
 62
     7
100
AcDbLine
 10
-22.05568927781795
 20
245.5149810016242
 30
0.0
 11
-21.49000385286874
 21
245.7978237140989
 31
0.0
  0
LINE
  5
2E9
330
1F
100
AcDbEntity
  8
0
  6
Continuous
 62
     7
100
AcDbLine
 10
-22.94541286832308
 20
244.2473950727765
 30
0.0
 11
-27.67718818825105
 21
241.8815074128125
 31
0.0
  0
LINE
  5
2EA
330
1F
100
AcDbEntity
  8
0
  6
Continuous
 62
     7
100
AcDbLine
 10
-21.49000385286874
 20
245.7978237140989
 30
0.0
 11
-21.49000385286874
 21
245.8835054641374
 31
0.0
  0
LINE
  5
2EB
330
1F
100
AcDbEntity
  8
0
  6
Continuous
 62
     7
100
AcDbLine
 10
-35.98569286719297
 20
267.7484379812068
 30
0.0
 11
-27.00543674612382
 21
272.2385660417414
 31
0.0
  0
LINE
  5
2EC
330
1F
100
AcDbEntity
  8
0
  6
Continuous
 62
     7
100
AcDbLine
 10
-27.00543674612382
 20
272.2385660417414
 30
0.0
 11
-35.84427151095568
 21
276.6579834241572
 31
0.0
  0
LINE
  5
2ED
330
1F
100
AcDbEntity
  8
0
  6
Continuous
 62
     7
100
AcDbLine
 10
-39.20302872159178
 20
284.8423836100535
 30
0.0
 11
-35.52607345942172
 21
286.6808612411385
 31
0.0
  0
LINE
  5
2EE
330
1F
100
AcDbEntity
  8
0
  6
Continuous
 62
     7
100
AcDbLine
 10
-35.37962685001494
 20
285.1255871288663
 30
0.0
 11
-35.37962685001494
 21
286.8576379364351
 31
0.0
  0
LINE
  5
2EF
330
1F
100
AcDbEntity
  8
0
  6
Continuous
 62
     7
100
AcDbLine
 10
-37.29384041238805
 20
287.918298108215
 30
0.0
 11
-35.52607345942172
 21
287.0344146317318
 31
0.0
  0
LINE
  5
2F0
330
1F
100
AcDbEntity
  8
0
  6
Continuous
 62
     7
100
AcDbLine
 10
-35.37962685001494
 20
286.8201307771293
 30
0.0
 11
-23.68203487454704
 21
280.9713347893953
 31
0.0
  0
LINE
  5
2F1
330
1F
100
AcDbEntity
  8
0
  6
Continuous
 62
     7
100
AcDbLine
 10
-35.98569286719297
 20
252.8961023063037
 30
0.0
 11
-35.98569286719297
 21
267.7484379812068
 31
0.0
  0
LINE
  5
2F2
330
1F
100
AcDbEntity
  8
0
  6
Continuous
 62
     2
100
AcDbLine
 10
-35.52607345942172
 20
286.6808612411385
 30
0.0
 11
-35.52607345942172
 21
284.9488104335696
 31
0.0
  0
LINE
  5
2F3
330
1F
100
AcDbEntity
  8
0
  6
Continuous
 62
     7
100
AcDbLine
 10
-41.67790245574466
 20
283.9942162789678
 30
0.0
 11
-39.91013550277827
 21
283.1103328024846
 31
0.0
  0
LINE
  5
2F4
330
1F
100
AcDbEntity
  8
0
  6
Continuous
 62
     7
100
AcDbLine
 10
-35.52607345942172
 20
284.9488104335696
 30
0.0
 11
-39.20302872159178
 21
283.1103328024846
 31
0.0
  0
LINE
  5
2F5
330
1F
100
AcDbEntity
  8
0
  6
Continuous
 62
     2
100
AcDbLine
 10
-39.20302872159178
 20
284.8423836100535
 30
0.0
 11
-39.20302872159178
 21
283.1103328024846
 31
0.0
  0
LINE
  5
2F6
330
1F
100
AcDbEntity
  8
0
  6
Continuous
 62
     2
100
AcDbLine
 10
-39.91013550277827
 20
284.8423836100535
 30
0.0
 11
-39.91013550277827
 21
283.1103328024846
 31
0.0
  0
LINE
  5
2F7
330
1F
100
AcDbEntity
  8
0
  6
Continuous
 62
     7
100
AcDbLine
 10
-37.29384041238805
 20
287.918298108215
 30
0.0
 11
-41.67790245574466
 21
285.7262670865367
 31
0.0
  0
LINE
  5
2F8
330
1F
100
AcDbEntity
  8
0
  6
Continuous
 62
     7
100
AcDbLine
 10
-41.67790245574466
 20
285.7262670865367
 30
0.0
 11
-39.91013550277827
 21
284.8423836100535
 31
0.0
  0
LINE
  5
2F9
330
1F
100
AcDbEntity
  8
0
  6
Continuous
 62
     7
100
AcDbLine
 10
-41.67790245574466
 20
283.9942162789678
 30
0.0
 11
-41.67790245574466
 21
285.7262670865367
 31
0.0
  0
LINE
  5
2FA
330
1F
100
AcDbEntity
  8
0
  6
Continuous
 62
     7
100
AcDbLine
 10
-10.24700603200259
 20
273.0699577191428
 30
0.0
 11
-11.66121959437569
 21
273.7770645003294
 31
0.0
  0
LINE
  5
2FB
330
1F
100
AcDbEntity
  8
0
  6
Continuous
 62
     2
100
AcDbLine
 10
-11.13088950848581
 20
265.2668000487336
 30
0.0
 11
-18.99449358630935
 21
269.1986020876453
 31
0.0
  0
LINE
  5
2FC
330
1F
100
AcDbEntity
  8
0
  6
Continuous
 62
     2
100
AcDbLine
 10
-11.48444289907914
 20
264.6570106515447
 30
0.0
 11
-18.31251028706336
 21
268.0710443455368
 31
0.0
  0
LINE
  5
2FD
330
1F
100
AcDbEntity
  8
0
  6
Continuous
 62
     7
100
AcDbLine
 10
-19.65147933021765
 20
268.4998908965213
 30
0.0
 11
-15.885167166137
 21
262.3713912032156
 31
0.0
  0
LINE
  5
2FE
330
1F
100
AcDbEntity
  8
0
  6
Continuous
 62
     7
100
AcDbLine
 10
-26.31697618872911
 20
252.7807131772298
 30
0.0
 11
-31.03594539888715
 21
250.4212285721508
 31
0.0
  0
LINE
  5
2FF
330
1F
100
AcDbEntity
  8
0
  6
Continuous
 62
     7
100
AcDbLine
 10
-29.79850853181065
 20
250.3038254124723
 30
0.0
 11
-26.38474955148084
 21
252.0107049026372
 31
0.0
  0
LINE
  5
300
330
1F
100
AcDbEntity
  8
0
  6
Continuous
 62
     7
100
AcDbLine
 10
-10.24700603200259
 20
264.5396074918661
 30
0.0
 11
-10.24700603200259
 21
273.0699577191428
 31
0.0
  0
LINE
  5
301
330
1F
100
AcDbEntity
  8
0
  6
Continuous
 62
     7
100
AcDbLine
 10
-15.20459918740104
 20
263.0138872668559
 30
0.0
 11
-18.95033317855101
 21
269.1089023946239
 31
0.0
  0
LINE
  5
302
330
1F
100
AcDbEntity
  8
0
  6
Continuous
 62
     2
100
AcDbLine
 10
-15.885167166137
 20
262.3713912032156
 30
0.0
 11
-20.83491463444292
 21
264.8462649373685
 31
0.0
  0
LINE
  5
303
330
1F
100
AcDbEntity
  8
0
  6
Continuous
 62
     7
100
AcDbLine
 10
-19.22726215307173
 20
271.1779058699616
 30
0.0
 11
-19.22726215307173
 21
269.4458550623926
 31
0.0
  0
LINE
  5
304
330
1F
100
AcDbEntity
  8
0
  6
Continuous
 62
     2
100
AcDbLine
 10
-11.13088950848581
 20
271.1557727944677
 30
0.0
 11
-11.56390221037802
 21
271.3722791454138
 31
0.0
  0
LINE
  5
305
330
1F
100
AcDbEntity
  8
0
  6
Continuous
 62
     7
100
AcDbLine
 10
-13.25220985204541
 20
272.8230926446089
 30
0.0
 11
-13.25220985204541
 21
272.260176132149
 31
0.0
  0
LINE
  5
306
330
1F
100
AcDbEntity
  8
0
  6
Continuous
 62
     7
100
AcDbLine
 10
-11.13088950848581
 20
271.1557727944677
 30
0.0
 11
-11.13088950848581
 21
265.2668000487336
 31
0.0
  0
LINE
  5
307
330
1F
100
AcDbEntity
  8
0
  6
Continuous
 62
     7
100
AcDbLine
 10
-11.48444289907914
 20
264.6570106515447
 30
0.0
 11
-14.89820187940896
 21
262.9501311613798
 31
0.0
  0
LINE
  5
308
330
1F
100
AcDbEntity
  8
0
  6
Continuous
 62
     7
100
AcDbLine
 10
-11.8379962896723
 20
271.2352321057667
 30
0.0
 11
-11.48444289907914
 21
271.4120088010633
 31
0.0
  0
LINE
  5
309
330
1F
100
AcDbEntity
  8
0
  6
Continuous
 62
     7
100
AcDbLine
 10
-24.60122679852347
 20
270.9747646306741
 30
0.0
 11
-20.83491463444292
 21
264.8462649373685
 31
0.0
  0
LINE
  5
30A
330
1F
100
AcDbEntity
  8
0
  6
Continuous
 62
     2
100
AcDbLine
 10
-19.65147933021765
 20
268.4998908965213
 30
0.0
 11
-24.60122679852347
 21
270.9747646306741
 31
0.0
  0
LINE
  5
30B
330
1F
100
AcDbEntity
  8
0
  6
Continuous
 62
     7
100
AcDbLine
 10
-19.22726215307173
 20
269.4458550623926
 30
0.0
 11
-19.79294757802106
 21
269.1630123499181
 31
0.0
  0
LINE
  5
30C
330
1F
100
AcDbEntity
  8
0
  6
Continuous
 62
     7
100
AcDbLine
 10
-10.24700603200259
 20
273.0699577191428
 30
0.0
 11
-12.2269050193249
 21
272.0800082254817
 31
0.0
  0
LINE
  5
30D
330
1F
100
AcDbEntity
  8
0
  6
Continuous
 62
     7
100
AcDbLine
 10
-53.52194104061934
 20
252.0914348729973
 30
0.0
 11
-43.05676067905844
 21
246.8588446922168
 31
0.0
  0
LINE
  5
30E
330
1F
100
AcDbEntity
  8
0
  6
Continuous
 62
     7
100
AcDbLine
 10
-43.05676067905844
 20
247.0352605811753
 30
0.0
 11
-55.07757595922979
 21
253.045668221261
 31
0.0
  0
LINE
  5
30F
330
1F
100
AcDbEntity
  8
0
  6
Continuous
 62
     7
100
AcDbLine
 10
-43.05676067905844
 20
247.0352605811753
 30
0.0
 11
-43.05676067905844
 21
245.3032097736064
 31
0.0
  0
LINE
  5
310
330
1F
100
AcDbEntity
  8
0
  6
Continuous
 62
     7
100
AcDbLine
 10
-35.98569286719297
 20
252.8961023063037
 30
0.0
 11
-31.03594539888715
 21
250.4212285721508
 31
0.0
  0
LINE
  5
311
330
1F
100
AcDbEntity
  8
0
  6
Continuous
 62
     7
100
AcDbLine
 10
-49.66856988949084
 20
250.164749297433
 30
0.0
 11
-50.30460518622058
 21
249.8467316490682
 31
0.0
  0
LINE
  5
312
330
1F
100
AcDbEntity
  8
0
  6
Continuous
 62
     2
100
AcDbLine
 10
-50.30460518622058
 20
249.8467316490682
 30
0.0
 11
-50.30460518622058
 21
250.4827669457979
 31
0.0
  0
LINE
  5
313
330
1F
100
AcDbEntity
  8
0
  6
Continuous
 62
     7
100
AcDbLine
 10
-52.77947892037346
 20
250.7306151255514
 30
0.0
 11
-51.01171196740714
 21
249.8467316490682
 31
0.0
  0
LINE
  5
314
330
1F
100
AcDbEntity
  8
0
  6
Continuous
 62
     2
100
AcDbLine
 10
-51.01171196740714
 20
249.8467316490682
 30
0.0
 11
-51.01171196740714
 21
250.8363203363912
 31
0.0
  0
LINE
  5
315
330
1F
100
AcDbEntity
  8
0
  6
Continuous
 62
     7
100
AcDbLine
 10
-48.36006153795759
 20
251.6497546272988
 30
0.0
 11
-54.37046917804318
 21
254.6549584473419
 31
0.0
  0
LINE
  5
316
330
1F
100
AcDbEntity
  8
0
  6
Continuous
 62
     7
100
AcDbLine
 10
-55.07757595922979
 20
254.3014050567486
 30
0.0
 11
-48.36006153795759
 21
250.9426478461125
 31
0.0
  0
LINE
  5
317
330
1F
100
AcDbEntity
  8
0
  6
Continuous
 62
     7
100
AcDbLine
 10
-55.07757595922979
 20
254.3014050567486
 30
0.0
 11
-55.07757595922979
 21
253.045668221261
 31
0.0
  0
LINE
  5
318
330
1F
100
AcDbEntity
  8
0
  6
Continuous
 62
     7
100
AcDbLine
 10
-53.52194104061934
 20
252.2678507619558
 30
0.0
 11
-53.52194104061934
 21
252.0914348729973
 31
0.0
  0
LINE
  5
319
330
1F
100
AcDbEntity
  8
0
  6
Continuous
 62
     7
100
AcDbLine
 10
-48.36006153795759
 20
253.6273265978443
 30
0.0
 11
-48.36006153795759
 21
250.9426478461125
 31
0.0
  0
LINE
  5
31A
330
1F
100
AcDbEntity
  8
0
  6
Continuous
 62
     7
100
AcDbLine
 10
-52.77947892037346
 20
251.7202038128744
 30
0.0
 11
-52.77947892037346
 21
250.7306151255514
 31
0.0
  0
LINE
  5
31B
330
1F
100
AcDbEntity
  8
0
  6
Continuous
 62
     7
100
AcDbLine
 10
-54.37046917804318
 20
256.6325304178871
 30
0.0
 11
-54.37046917804318
 21
254.6549584473419
 31
0.0
  0
LINE
  5
31C
330
1F
100
AcDbEntity
  8
0
  6
Continuous
 62
     7
100
AcDbLine
 10
-54.37046917804318
 20
254.6549584473419
 30
0.0
 11
-55.07757595922979
 21
254.3014050567486
 31
0.0
  0
LINE
  5
31D
330
1F
100
AcDbEntity
  8
0
  6
Continuous
 62
     7
100
AcDbLine
 10
-48.36006153795759
 20
253.6273265978443
 30
0.0
 11
-55.07757595922979
 21
256.9860838084804
 31
0.0
  0
ARC
  5
31E
102
{ACAD_REACTORS
330
408
102
}
330
1F
100
AcDbEntity
  8
1
  6
Continuous
 62
     7
100
AcDbCircle
 10
-14.32369931125729
 20
10.84673060906323
 30
0.0
 40
0.3333333333332896
100
AcDbArc
 50
299.9816393688252
 51
119.9816393688486
  0
ARC
  5
31F
102
{ACAD_REACTORS
330
408
102
}
330
1F
100
AcDbEntity
  8
1
  6
Continuous
 62
     7
100
AcDbCircle
 10
-14.32369931125729
 20
12.5
 30
0.0
 40
0.3333333333333695
100
AcDbArc
 50
270.0
 51
90.0
  0
ARC
  5
320
102
{ACAD_REACTORS
330
408
102
}
330
1F
100
AcDbEntity
  8
1
  6
Continuous
 62
     7
100
AcDbCircle
 10
-14.32369931125729
 20
14.15326939093666
 30
0.0
 40
0.3333333333334021
100
AcDbArc
 50
240.0183606311419
 51
60.01836063116458
  0
ARC
  5
321
102
{ACAD_REACTORS
330
409
102
}
330
1F
100
AcDbEntity
  8
1
  6
Continuous
 62
     7
100
AcDbCircle
 10
-22.32369931125734
 20
10.84673060906323
 30
0.0
 40
0.3333333333333215
100
AcDbArc
 50
180.0
 51
0.0
  0
ARC
  5
322
102
{ACAD_REACTORS
330
409
102
}
330
1F
100
AcDbEntity
  8
1
  6
Continuous
 62
     7
100
AcDbCircle
 10
-22.32369931125734
 20
14.15326939093666
 30
0.0
 40
0.3333333333333108
100
AcDbArc
 50
0.0
 51
180.0
  0
ARC
  5
323
102
{ACAD_REACTORS
330
40A
102
}
330
1F
100
AcDbEntity
  8
1
  6
Continuous
 62
     7
100
AcDbCircle
 10
-18.65703264459066
 20
8.7313459936787
 30
0.0
 40
0.3333333333333958
100
AcDbArc
 50
240.018360631142
 51
60.01836063115783
  0
ARC
  5
324
102
{ACAD_REACTORS
330
40A
102
}
330
1F
100
AcDbEntity
  8
1
  6
Continuous
 62
     7
100
AcDbCircle
 10
-20.99036597792403
 20
14.92250016016737
 30
0.0
 40
0.3333333333333677
100
AcDbArc
 50
0.0
 51
180.0
  0
ARC
  5
325
102
{ACAD_REACTORS
330
40B
102
}
330
1F
100
AcDbEntity
  8
1
  6
Continuous
 62
     7
100
AcDbCircle
 10
-16.92199885706603
 20
15.73121731203457
 30
0.0
 40
0.2649662124753682
100
AcDbArc
 50
0.0
 51
149.9999999999746
  0
ARC
  5
326
102
{ACAD_REACTORS
330
40B
102
}
330
1F
100
AcDbEntity
  8
1
  6
Continuous
 62
     7
100
AcDbCircle
 10
-16.99036597792397
 20
9.3082690706018
 30
0.0
 40
0.3333333333333677
100
AcDbArc
 50
180.0
 51
0.0
  0
ARC
  5
327
102
{ACAD_REACTORS
330
40B
102
}
330
1F
100
AcDbEntity
  8
1
  6
Continuous
 62
     7
100
AcDbCircle
 10
-19.65703264459066
 20
10.84758507263291
 30
0.0
 40
0.3333333333333677
100
AcDbArc
 50
180.0
 51
0.0
  0
ARC
  5
328
102
{ACAD_REACTORS
330
40B
102
}
330
1F
100
AcDbEntity
  8
1
  6
Continuous
 62
     7
100
AcDbCircle
 10
-19.72539976544877
 20
15.73121731203457
 30
0.0
 40
0.2649662124753838
100
AcDbArc
 50
30.00000000000692
 51
180.0
  0
ARC
  5
329
330
1F
100
AcDbEntity
  8
0
  6
Continuous
 62
     7
100
AcDbCircle
 10
-143.6940931545811
 20
174.9499244008372
 30
0.0
 40
0.5
100
AcDbArc
 50
180.0
 51
270.0
  0
ARC
  5
32A
330
1F
100
AcDbEntity
  8
0
  6
Continuous
 62
     7
100
AcDbCircle
 10
-134.3715092284457
 20
168.2116548891932
 30
0.0
 40
0.078432622557699
100
AcDbArc
 50
180.0
 51
240.0294965032866
  0
ARC
  5
32B
330
1F
100
AcDbEntity
  8
0
  6
Continuous
 62
     7
100
AcDbCircle
 10
-133.116580376022
 20
168.2116550044075
 30
0.0
 40
0.0784331764484982
100
AcDbArc
 50
180.0000841645558
 51
299.9705876613935
  0
ARC
  5
32C
330
1F
100
AcDbEntity
  8
0
  6
Continuous
 62
     7
100
AcDbCircle
 10
-133.4303128793332
 20
169.3691118282023
 30
0.0
 40
0.078433283993159
100
AcDbArc
 50
0.00007455268377
 51
139.0324620326683
  0
ARC
  5
32D
330
1F
100
AcDbEntity
  8
0
  6
Continuous
 62
     7
100
AcDbCircle
 10
-133.1165805754609
 20
169.1881936820529
 30
0.0
 40
0.0784329770098962
100
AcDbArc
 50
60.02932817318356
 51
179.9998316707719
  0
ARC
  5
32E
330
1F
100
AcDbEntity
  8
0
  6
Continuous
 62
     7
100
AcDbCircle
 10
-134.0577765256959
 20
169.3691118282023
 30
0.0
 40
0.078432737595844
100
AcDbArc
 50
40.96753796679342
 51
179.9999254467969
  0
ARC
  5
32F
330
1F
100
AcDbEntity
  8
0
  6
Continuous
 62
     7
100
AcDbCircle
 10
-128.9940931545811
 20
174.9499244008372
 30
0.0
 40
0.5
100
AcDbArc
 50
180.0
 51
270.0
  0
ARC
  5
330
330
1F
100
AcDbEntity
  8
0
  6
Continuous
 62
     7
100
AcDbCircle
 10
-123.7940931545811
 20
174.9499244008372
 30
0.0
 40
0.5
100
AcDbArc
 50
270.0
 51
0.0
  0
ARC
  5
331
330
1F
100
AcDbEntity
  8
0
  6
Continuous
 62
     7
100
AcDbCircle
 10
-138.4940931545811
 20
174.9499244008372
 30
0.0
 40
0.5
100
AcDbArc
 50
270.0
 51
0.0
  0
ARC
  5
332
330
1F
100
AcDbEntity
  8
0
  6
Continuous
 62
     7
100
AcDbCircle
 10
-139.244093154581
 20
255.6324881841862
 30
0.0
 40
7.599999999999916
100
AcDbArc
 50
62.57892508628208
 51
51.79907716915823
  0
ARC
  5
333
330
1F
100
AcDbEntity
  8
0
  6
Continuous
 62
     7
100
AcDbCircle
 10
-146.194093154581
 20
238.1824881841862
 30
0.0
 40
2.0
100
AcDbArc
 50
0.0
 51
90.0
  0
ARC
  5
334
330
1F
100
AcDbEntity
  8
0
  6
Continuous
 62
     7
100
AcDbCircle
 10
-145.644093154581
 20
237.1324881841862
 30
0.0
 40
0.1999999999999886
100
AcDbArc
 50
0.0
 51
90.0
  0
ARC
  5
335
330
1F
100
AcDbEntity
  8
0
  6
Continuous
 62
     7
100
AcDbCircle
 10
-143.694093154581
 20
235.8824881841862
 30
0.0
 40
0.5
100
AcDbArc
 50
180.0
 51
270.0
  0
ARC
  5
336
330
1F
100
AcDbEntity
  8
0
  6
Continuous
 62
     7
100
AcDbCircle
 10
-146.694093154581
 20
245.8324881841862
 30
0.0
 40
0.5
100
AcDbArc
 50
90.0
 51
180.0
  0
ARC
  5
337
330
1F
100
AcDbEntity
  8
0
  6
Continuous
 62
     7
100
AcDbCircle
 10
-128.2440931545916
 20
243.0324881841837
 30
0.0
 40
7.599999999999929
100
AcDbArc
 50
242.5789250863721
 51
231.7990771692598
  0
ARC
  5
338
330
1F
100
AcDbEntity
  8
0
  6
Continuous
 62
     7
100
AcDbCircle
 10
-141.8663089059256
 20
245.8324881841862
 30
0.0
 40
0.499999999999989
100
AcDbArc
 50
29.93151184050078
 51
90.0
  0
ARC
  5
339
330
1F
100
AcDbEntity
  8
0
  6
Continuous
 62
     7
100
AcDbCircle
 10
-128.2440931545916
 20
243.0324881841837
 30
0.0
 40
7.600000000000009
100
AcDbArc
 50
231.7990771692598
 51
242.5789250863721
  0
ARC
  5
33A
330
1F
100
AcDbEntity
  8
0
  6
Continuous
 62
     7
100
AcDbCircle
 10
-125.7177234120076
 20
252.9824881841862
 30
0.0
 40
1.500000000000026
100
AcDbArc
 50
209.9315118405057
 51
270.0
  0
ARC
  5
33B
330
1F
100
AcDbEntity
  8
0
  6
Continuous
 62
     7
100
AcDbCircle
 10
-136.444093154581
 20
236.4314249470849
 30
0.0
 40
1.5
100
AcDbArc
 50
0.0
 51
29.93151184050979
  0
ARC
  5
33C
330
1F
100
AcDbEntity
  8
0
  6
Continuous
 62
     7
100
AcDbCircle
 10
-137.0023523230365
 20
236.3824881841862
 30
0.0
 40
1.0
100
AcDbArc
 50
270.0
 51
29.93151184050442
  0
ARC
  5
33D
330
1F
100
AcDbEntity
  8
0
  6
Continuous
 62
     7
100
AcDbCircle
 10
-121.294093154581
 20
262.1324881841862
 30
0.0
 40
2.0
100
AcDbArc
 50
180.0
 51
270.0
  0
ARC
  5
33E
330
1F
100
AcDbEntity
  8
0
  6
Continuous
 62
     7
100
AcDbCircle
 10
-120.794093154581
 20
252.8324881841862
 30
0.0
 40
0.5
100
AcDbArc
 50
270.0
 51
0.0
  0
ARC
  5
33F
330
1F
100
AcDbEntity
  8
0
  6
Continuous
 62
     7
100
AcDbCircle
 10
-131.044093154581
 20
262.2335514212874
 30
0.0
 40
1.5
100
AcDbArc
 50
180.0
 51
209.9315118405064
  0
ARC
  5
340
330
1F
100
AcDbEntity
  8
0
  6
Continuous
 62
     7
100
AcDbCircle
 10
-141.7704628971544
 20
245.6824881841862
 30
0.0
 40
1.499999999999939
100
AcDbArc
 50
29.93151184050765
 51
90.0
  0
ARC
  5
341
330
1F
100
AcDbEntity
  8
0
  6
Continuous
 62
     7
100
AcDbCircle
 10
-121.844093154581
 20
261.5324881841862
 30
0.0
 40
0.2000000000000028
100
AcDbArc
 50
180.0
 51
270.0
  0
ARC
  5
342
330
1F
100
AcDbEntity
  8
0
  6
Continuous
 62
     7
100
AcDbCircle
 10
-125.6218774032364
 20
252.8324881841862
 30
0.0
 40
0.5000000000000315
100
AcDbArc
 50
209.9315118405092
 51
270.0
  0
ARC
  5
343
330
1F
100
AcDbEntity
  8
0
  6
Continuous
 62
     7
100
AcDbCircle
 10
-120.794093154581
 20
259.6324881841862
 30
0.0
 40
0.5
100
AcDbArc
 50
0.0
 51
90.0
  0
ARC
  5
344
330
1F
100
AcDbEntity
  8
0
  6
Continuous
 62
     7
100
AcDbCircle
 10
-123.794093154581
 20
262.7824881841862
 30
0.0
 40
0.5
100
AcDbArc
 50
0.0
 51
90.0
  0
ARC
  5
345
330
1F
100
AcDbEntity
  8
0
  6
Continuous
 62
     7
100
AcDbCircle
 10
-130.4858339861255
 20
262.2824881841862
 30
0.0
 40
1.0
100
AcDbArc
 50
90.0
 51
209.9315118405092
  0
ARC
  5
346
330
1F
100
AcDbEntity
  8
0
  6
Continuous
 62
     7
100
AcDbCircle
 10
-139.244093154581
 20
255.6324881841862
 30
0.0
 40
7.599999999999902
100
AcDbArc
 50
51.79907716915823
 51
62.57892508628208
  0
ARC
  5
347
330
1F
100
AcDbEntity
  8
0
  6
Continuous
 62
     7
100
AcDbCircle
 10
-146.694093154581
 20
240.6824881841862
 30
0.0
 40
0.5
100
AcDbArc
 50
180.0
 51
270.0
  0
ARC
  5
348
330
1F
100
AcDbEntity
  8
0
  6
Continuous
 62
     7
100
AcDbCircle
 10
-139.244093154581
 20
80.83957041541186
 30
0.0
 40
7.600000000000076
100
AcDbArc
 50
177.7757191752533
 51
299.3197443122966
  0
ARC
  5
349
330
1F
100
AcDbEntity
  8
0
  6
Continuous
 62
     7
100
AcDbCircle
 10
-128.2440931545877
 20
93.43957041541833
 30
0.0
 40
7.600000000004719
100
AcDbArc
 50
192.8638768126531
 51
258.6168865176235
  0
ARC
  5
34A
330
1F
100
AcDbEntity
  8
0
  6
Continuous
 62
     7
100
AcDbCircle
 10
-128.2440931545916
 20
93.43957041541174
 30
0.0
 40
7.599999999997504
100
AcDbArc
 50
258.6168865176427
 51
282.5390678406421
  0
ARC
  5
34B
330
1F
100
AcDbEntity
  8
0
  6
Continuous
 62
     7
100
AcDbCircle
 10
-139.2440931545771
 20
80.83957041541314
 30
0.0
 40
7.59999999999973
100
AcDbArc
 50
104.2242808247778
 51
112.2974093205126
  0
ARC
  5
34C
330
1F
100
AcDbEntity
  8
0
  6
Continuous
 62
     7
100
AcDbCircle
 10
-139.244093154581
 20
80.83957041541186
 30
0.0
 40
7.599999999999986
100
AcDbArc
 50
78.61688651756494
 51
101.3831134824351
  0
ARC
  5
34D
330
1F
100
AcDbEntity
  8
0
  6
Continuous
 62
     7
100
AcDbCircle
 10
-139.244093154581
 20
80.83957041541186
 30
0.0
 40
7.599999999999986
100
AcDbArc
 50
101.3831134824351
 51
104.2242808247467
  0
ARC
  5
34E
330
1F
100
AcDbEntity
  8
0
  6
Continuous
 62
     7
100
AcDbCircle
 10
-128.2440931545898
 20
93.43957041541722
 30
0.0
 40
7.599999999998255
100
AcDbArc
 50
357.7757191752755
 51
119.31232064034
  0
ARC
  5
34F
330
1F
100
AcDbEntity
  8
0
  6
Continuous
 62
     7
100
AcDbCircle
 10
-128.2440931545818
 20
93.43957041541665
 30
0.0
 40
7.600000000010064
100
AcDbArc
 50
184.7840071130068
 51
192.8638768126309
  0
ARC
  5
350
330
1F
100
AcDbEntity
  8
0
  6
Continuous
 62
     7
100
AcDbCircle
 10
-128.2440931545269
 20
93.43957041544746
 30
0.0
 40
7.600000000002717
100
AcDbArc
 50
119.3123206408651
 51
127.3787490099893
  0
ARC
  5
351
330
1F
100
AcDbEntity
  8
0
  6
Continuous
 62
     7
100
AcDbCircle
 10
-128.2487118839999
 20
93.44248113126693
 30
0.0
 40
10.09553294090603
100
AcDbArc
 50
129.3048490972192
 51
182.8814161793797
  0
ARC
  5
352
330
1F
100
AcDbEntity
  8
0
  6
Continuous
 62
     7
100
AcDbCircle
 10
-128.2487118839999
 20
93.44248113126693
 30
0.0
 40
9.100000000000009
100
AcDbArc
 50
132.4412330437235
 51
179.7350822310687
  0
ARC
  5
353
330
1F
100
AcDbEntity
  8
0
  6
Continuous
 62
     7
100
AcDbCircle
 10
-128.2440931545862
 20
93.43957041540014
 30
0.0
 40
7.600000000004362
100
AcDbArc
 50
127.3787490094173
 51
184.7840071128855
  0
ARC
  5
354
330
1F
100
AcDbEntity
  8
0
  6
Continuous
 62
     7
100
AcDbCircle
 10
-128.2440931545828
 20
93.43957041540781
 30
0.0
 40
7.999999999997994
100
AcDbArc
 50
128.9363829416381
 51
183.2272353735288
  0
ARC
  5
355
330
1F
100
AcDbEntity
  8
0
  6
Continuous
 62
     7
100
AcDbCircle
 10
-139.244093154581
 20
80.83957041541186
 30
0.0
 40
10.1
100
AcDbArc
 50
114.2245497513118
 51
155.6287853408689
  0
ARC
  5
356
330
1F
100
AcDbEntity
  8
0
  6
Continuous
 62
     7
100
AcDbCircle
 10
-139.244093154581
 20
80.83957041541186
 30
0.0
 40
7.599999999999417
100
AcDbArc
 50
112.2974093204816
 51
169.7025906795145
  0
ARC
  5
357
330
1F
100
AcDbEntity
  8
0
  6
Continuous
 62
     7
100
AcDbCircle
 10
-139.2440931545782
 20
80.83957041541527
 30
0.0
 40
7.999999999998026
100
AcDbArc
 50
113.854609690996
 51
168.1453903090649
  0
ARC
  5
358
330
1F
100
AcDbEntity
  8
0
  6
Continuous
 62
     7
100
AcDbCircle
 10
-139.244093154581
 20
80.83957041541186
 30
0.0
 40
9.099999999999978
100
AcDbArc
 50
117.3531059165702
 51
164.64689408343
  0
ARC
  5
359
330
1F
100
AcDbEntity
  8
0
  6
Continuous
 62
     7
100
AcDbCircle
 10
-139.244093154581
 20
80.83957041541186
 30
0.0
 40
9.100000000000074
100
AcDbArc
 50
312.4412330437241
 51
359.7350822310685
  0
ARC
  5
35A
330
1F
100
AcDbEntity
  8
0
  6
Continuous
 62
     7
100
AcDbCircle
 10
-139.244093154581
 20
80.83957041541186
 30
0.0
 40
7.599999999999989
100
AcDbArc
 50
307.3855288052532
 51
4.79078646953758
  0
ARC
  5
35B
330
1F
100
AcDbEntity
  8
0
  6
Continuous
 62
     7
100
AcDbCircle
 10
-139.244093154581
 20
80.83957041541186
 30
0.0
 40
8.000000000000016
100
AcDbArc
 50
308.9427316017957
 51
3.23358367299893
  0
ARC
  5
35C
330
1F
100
AcDbEntity
  8
0
  6
Continuous
 62
     7
100
AcDbCircle
 10
-139.2440931545807
 20
80.83957041541441
 30
0.0
 40
7.600000000000194
100
AcDbArc
 50
169.702590679534
 51
177.7757191752727
  0
ARC
  5
35D
330
1F
100
AcDbEntity
  8
0
  6
Continuous
 62
     7
100
AcDbCircle
 10
-128.2440931545809
 20
93.43957041541304
 30
0.0
 40
7.599999999989162
100
AcDbArc
 50
349.7025906795698
 51
357.7757191753043
  0
ARC
  5
35E
330
1F
100
AcDbEntity
  8
0
  6
Continuous
 62
     7
100
AcDbCircle
 10
-139.244093154581
 20
80.83957041541186
 30
0.0
 40
7.599999999999982
100
AcDbArc
 50
12.87130119220111
 51
78.61688651756494
  0
ARC
  5
35F
330
1F
100
AcDbEntity
  8
0
  6
Continuous
 62
     7
100
AcDbCircle
 10
-128.2440931545904
 20
93.4395704154096
 30
0.0
 40
7.599999999995172
100
AcDbArc
 50
282.5390678406366
 51
284.2242808247917
  0
ARC
  5
360
330
1F
100
AcDbEntity
  8
0
  6
Continuous
 62
     7
100
AcDbCircle
 10
-139.244093154581
 20
80.83957041541186
 30
0.0
 40
10.09553294090607
100
AcDbArc
 50
309.3048490972196
 51
2.88141617937955
  0
ARC
  5
361
330
1F
100
AcDbEntity
  8
0
  6
Continuous
 62
     7
100
AcDbCircle
 10
-139.244093154581
 20
80.83957041541186
 30
0.0
 40
7.599999999999992
100
AcDbArc
 50
299.3197443122966
 51
307.3855288052532
  0
ARC
  5
362
330
1F
100
AcDbEntity
  8
0
  6
Continuous
 62
     7
100
AcDbCircle
 10
-139.244093154581
 20
80.83957041541186
 30
0.0
 40
7.599999999999915
100
AcDbArc
 50
4.79078646953758
 51
12.87130119220111
  0
ARC
  5
363
330
1F
100
AcDbEntity
  8
0
  6
Continuous
 62
     7
100
AcDbCircle
 10
-128.244093154584
 20
93.43957041540816
 30
0.0
 40
7.599999999991419
100
AcDbArc
 50
292.2974093204712
 51
349.7025906796102
  0
ARC
  5
364
330
1F
100
AcDbEntity
  8
0
  6
Continuous
 62
     7
100
AcDbCircle
 10
-128.244093154581
 20
93.43957041541185
 30
0.0
 40
10.1
100
AcDbArc
 50
294.2245497513119
 51
335.6287853408688
  0
ARC
  5
365
330
1F
100
AcDbEntity
  8
0
  6
Continuous
 62
     7
100
AcDbCircle
 10
-128.2440931545904
 20
93.4395704154096
 30
0.0
 40
7.599999999995182
100
AcDbArc
 50
284.2242808247917
 51
292.2974093205117
  0
ARC
  5
366
330
1F
100
AcDbEntity
  8
0
  6
Continuous
 62
     7
100
AcDbCircle
 10
-128.244093154581
 20
93.43957041541185
 30
0.0
 40
9.100000000000017
100
AcDbArc
 50
297.3531059165703
 51
344.6468940834299
  0
ARC
  5
367
330
1F
100
AcDbEntity
  8
0
  6
Continuous
 62
     7
100
AcDbCircle
 10
-128.2440931545786
 20
93.43957041541483
 30
0.0
 40
7.999999999997736
100
AcDbArc
 50
293.854609690939
 51
348.1453903089993
  0
CIRCLE
  5
368
330
1F
100
AcDbEntity
  8
0
  6
Continuous
 62
     7
100
AcDbCircle
 10
-140.894093154581
 20
238.6324881841862
 30
0.0
 40
1.550000000000011
  0
CIRCLE
  5
369
330
1F
100
AcDbEntity
  8
0
  6
Continuous
 62
     7
100
AcDbCircle
 10
-126.5653052757931
 20
259.9824881841861
 30
0.0
 40
1.550000000000011
  0
CIRCLE
  5
36A
330
1F
100
AcDbEntity
  8
0
  6
Continuous
 62
     7
100
AcDbCircle
 10
-140.894093154581
 20
97.83957041541186
 30
0.0
 40
1.550000000000011
  0
CIRCLE
  5
36B
330
1F
100
AcDbEntity
  8
0
  6
Continuous
 62
     7
100
AcDbCircle
 10
-126.5653052757931
 20
76.48957041541183
 30
0.0
 40
1.550000000000011
  0
SPLINE
  5
36C
330
1F
100
AcDbEntity
  8
0
  6
Continuous
 62
     7
100
AcDbSpline
210
0.0
220
0.0
230
1.0
 70
     8
 71
     3
 72
    15
 73
    11
 74
     9
 42
0.000000001
 43
0.0000000001
 44
0.00000001
 40
0.0
 40
0.0
 40
0.0
 40
0.0
 40
0.0306028616142193
 40
0.0612057628368842
 40
0.0918087181819273
 40
0.1224117112913761
 40
0.1530147044008249
 40
0.1836176597458444
 40
0.214220560968454
 40
0.2448234225826957
 40
0.2448234225826957
 40
0.2448234225826957
 40
0.2448234225826957
 10
-134.7636739811679
 20
168.392572906971
 30
0.0
 10
-134.7624948871796
 20
168.3823075341803
 30
0.0
 10
-134.7601366852278
 20
168.3617767779556
 30
0.0
 10
-134.7419996012166
 20
168.3356686203301
 30
0.0
 10
-134.7160736621281
 20
168.3182245061191
 30
0.0
 10
-134.685240959733
 20
168.3120981211369
 30
0.0
 10
-134.6544082573379
 20
168.3182245061191
 30
0.0
 10
-134.6284823182494
 20
168.3356686203302
 30
0.0
 10
-134.6103452342382
 20
168.3617767779556
 30
0.0
 10
-134.6079870322865
 20
168.3823075341803
 30
0.0
 10
-134.6068079382982
 20
168.392572906971
 30
0.0
 11
-134.7636739811679
 21
168.392572906971
 31
0.0
 11
-134.7577034025874
 21
168.3625581161416
 31
0.0
 11
-134.7407014810586
 21
168.3371126365045
 31
0.0
 11
-134.7152558863259
 21
168.3201107918787
 31
0.0
 11
-134.685240959733
 21
168.3141402403043
 31
0.0
 11
-134.6552260331401
 21
168.3201107918787
 31
0.0
 11
-134.6297804384075
 21
168.3371126365045
 31
0.0
 11
-134.6127785168787
 21
168.3625581161415
 31
0.0
 11
-134.6068079382982
 21
168.392572906971
 31
0.0
  0
SPLINE
  5
36D
330
1F
100
AcDbEntity
  8
0
  6
Continuous
 62
     7
100
AcDbSpline
210
0.0
220
0.0
230
1.0
 70
     8
 71
     3
 72
    15
 73
    11
 74
     9
 42
0.000000001
 43
0.0000000001
 44
0.00000001
 40
0.0
 40
0.0
 40
0.0
 40
0.0
 40
0.0306027683414676
 40
0.0612056316190817
 40
0.0918085869641327
 40
0.122411580073615
 40
0.1530145731830805
 40
0.1836175285281237
 40
0.2142204297507965
 40
0.244823291365116
 40
0.244823291365116
 40
0.244823291365116
 40
0.244823291365116
 10
-134.1362092632917
 20
168.392572906971
 30
0.0
 10
-134.1350303613124
 20
168.3823075305207
 30
0.0
 10
-134.1326725412475
 20
168.3617767484178
 30
0.0
 10
-134.114535403131
 20
168.3356686076655
 30
0.0
 10
-134.0886094949074
 20
168.3182245075807
 30
0.0
 10
-134.0577767871133
 20
168.3120981207454
 30
0.0
 10
-134.0269440861646
 20
168.3182245062239
 30
0.0
 10
-134.0010181466891
 20
168.3356686203022
 30
0.0
 10
-133.9828810627796
 20
168.3617767779625
 30
0.0
 10
-133.9805228608142
 20
168.3823075341826
 30
0.0
 10
-133.9793437668191
 20
168.392572906971
 30
0.0
 11
-134.1362092632917
 21
168.392572906971
 31
0.0
 11
-134.1302391628087
 21
168.3625581161416
 31
0.0
 11
-134.1132373095796
 21
168.3371126365045
 31
0.0
 11
-134.0877917148469
 21
168.3201107918787
 31
0.0
 11
-134.057776788254
 21
168.3141402403043
 31
0.0
 11
-134.027761861661
 21
168.3201107918787
 31
0.0
 11
-134.0023162669285
 21
168.3371126365045
 31
0.0
 11
-133.9853143453996
 21
168.3625581161415
 31
0.0
 11
-133.9793437668191
 21
168.392572906971
 31
0.0
  0
SPLINE
  5
36E
330
1F
100
AcDbEntity
  8
0
  6
Continuous
 62
     7
100
AcDbSpline
210
0.0
220
0.0
230
1.0
 70
     8
 71
     3
 72
    15
 73
    11
 74
     9
 42
0.000000001
 43
0.0000000001
 44
0.00000001
 40
0.0
 40
0.0
 40
0.0
 40
0.0
 40
0.0306029346604769
 40
0.0612058202940584
 40
0.0918086805413591
 40
0.1224115547546688
 40
0.1530144748180404
 40
0.1836174457521093
 40
0.2142204420723621
 40
0.2448234225827066
 40
0.2448234225827066
 40
0.2448234225827066
 40
0.2448234225827066
 10
-132.6068007324437
 20
168.4150871307336
 30
0.0
 10
-132.5984970138034
 20
168.4212366742058
 30
0.0
 10
-132.581889598334
 20
168.4335357607626
 30
0.0
 10
-132.5683329364531
 20
168.4622899882163
 30
0.0
 10
-132.5661727912437
 20
168.4934633925244
 30
0.0
 10
-132.576268261203
 20
168.5232335838088
 30
0.0
 10
-132.5969781426033
 20
168.5468828049684
 30
0.0
 10
-132.6250411867346
 20
168.5606275422762
 30
0.0
 10
-132.6567187614498
 20
168.563296800602
 30
0.0
 10
-132.6756823050319
 20
168.5550834041858
 30
0.0
 10
-132.6851640724089
 20
168.5509767009861
 30
0.0
 11
-132.6068007324437
 21
168.4150871307336
 31
0.0
 11
-132.5837819874071
 21
168.4352533729449
 31
0.0
 11
-132.5702323422598
 21
168.4626931967758
 31
0.0
 11
-132.5682153826684
 21
168.4932295204812
 31
0.0
 11
-132.5780373099709
 21
168.522213408616
 31
0.0
 11
-132.5982036433984
 21
168.5452320495341
 31
0.0
 11
-132.6256435913456
 21
168.5587816333937
 31
0.0
 11
-132.6561800531737
 21
168.5607985838621
 31
0.0
 11
-132.6851640724089
 21
168.5509767009861
 31
0.0
  0
SPLINE
  5
36F
330
1F
100
AcDbEntity
  8
0
  6
Continuous
 62
     7
100
AcDbSpline
210
0.0
220
0.0
230
1.0
 70
     8
 71
     3
 72
    15
 73
    11
 74
     9
 42
0.000000001
 43
0.0000000001
 44
0.00000001
 40
0.0
 40
0.0
 40
0.0
 40
0.0
 40
0.0306028616142472
 40
0.0612057628368727
 40
0.0918087181819394
 40
0.1224117112913882
 40
0.1530147044007812
 40
0.1836176597458007
 40
0.2142205609684736
 40
0.2448234225827208
 40
0.2448234225827208
 40
0.2448234225827208
 40
0.2448234225827208
 10
-133.5087456382099
 20
168.0307368714154
 30
0.0
 10
-133.5075665442216
 20
168.0204714986247
 30
0.0
 10
-133.5052083422698
 20
167.9999407424
 30
0.0
 10
-133.4870712582587
 20
167.9738325847745
 30
0.0
 10
-133.4611453191701
 20
167.9563884705635
 30
0.0
 10
-133.430312616775
 20
167.9502620855814
 30
0.0
 10
-133.3994799143799
 20
167.9563884705635
 30
0.0
 10
-133.3735539752914
 20
167.9738325847746
 30
0.0
 10
-133.3554168912801
 20
167.9999407423999
 30
0.0
 10
-133.3530586893284
 20
168.0204714986247
 30
0.0
 10
-133.3518795953401
 20
168.0307368714154
 30
0.0
 11
-133.5087456382099
 21
168.0307368714154
 31
0.0
 11
-133.5027750596294
 21
168.0007220805859
 31
0.0
 11
-133.4857731381006
 21
167.9752766009489
 31
0.0
 11
-133.4603275433679
 21
167.9582747563231
 31
0.0
 11
-133.430312616775
 21
167.9523042047487
 31
0.0
 11
-133.4002976901821
 21
167.9582747563231
 31
0.0
 11
-133.3748520954495
 21
167.9752766009489
 31
0.0
 11
-133.3578501739206
 21
168.0007220805859
 31
0.0
 11
-133.3518795953401
 21
168.0307368714154
 31
0.0
  0
SPLINE
  5
370
330
1F
100
AcDbEntity
  8
0
  6
Continuous
 62
     7
100
AcDbSpline
210
0.0
220
0.0
230
1.0
 70
     8
 71
     3
 72
    15
 73
    11
 74
     9
 42
0.000000001
 43
0.0000000001
 44
0.00000001
 40
0.0
 40
0.0
 40
0.0
 40
0.0
 40
0.0306029805103262
 40
0.061205976830579
 40
0.0918089477646479
 40
0.1224118678279767
 40
0.1530147420413134
 40
0.1836176022885857
 40
0.2142204879221927
 40
0.2448234225826509
 40
0.2448234225826509
 40
0.2448234225826509
 40
0.2448234225826509
 10
-133.7832263724971
 20
167.7818740685114
 30
0.0
 10
-133.77374460512
 20
167.7777673653117
 30
0.0
 10
-133.754781061538
 20
167.7695539688957
 30
0.0
 10
-133.7231034868228
 20
167.7722232272213
 30
0.0
 10
-133.6950404426915
 20
167.7859679645292
 30
0.0
 10
-133.6743305612911
 20
167.8096171856888
 30
0.0
 10
-133.6642350913319
 20
167.8393873769731
 30
0.0
 10
-133.6663952365413
 20
167.8705607812811
 30
0.0
 10
-133.6799518984222
 20
167.899315008735
 30
0.0
 10
-133.6965593138916
 20
167.9116140952917
 30
0.0
 10
-133.7048630325319
 20
167.9177636387639
 30
0.0
 11
-133.7832263724971
 21
167.7818740685114
 31
0.0
 11
-133.7542423532619
 21
167.7720521856355
 31
0.0
 11
-133.7237058914338
 21
167.7740691361038
 31
0.0
 11
-133.6962659434866
 21
167.7876187199634
 31
0.0
 11
-133.6760996100591
 21
167.8106373608815
 31
0.0
 11
-133.6662776827566
 21
167.8396212490163
 31
0.0
 11
-133.668294642348
 21
167.8701575727217
 31
0.0
 11
-133.6818442874954
 21
167.8975973965527
 31
0.0
 11
-133.7048630325319
 21
167.9177636387639
 31
0.0
  0
SPLINE
  5
371
330
1F
100
AcDbEntity
  8
0
  6
Continuous
 62
     7
100
AcDbSpline
210
0.0
220
0.0
230
1.0
 70
     8
 71
     3
 72
    15
 73
    11
 74
     9
 42
0.000000001
 43
0.0000000001
 44
0.00000001
 40
0.0
 40
0.0
 40
0.0
 40
0.0
 40
0.0306029805103262
 40
0.061205976830579
 40
0.0918089477646605
 40
0.1224118678279893
 40
0.153014742041326
 40
0.183617602288655
 40
0.2142204879222365
 40
0.2448234225826759
 40
0.2448234225826759
 40
0.2448234225826759
 40
0.2448234225826759
 10
-132.6851640724089
 20
168.8488721006882
 30
0.0
 10
-132.6756823050318
 20
168.8447653974886
 30
0.0
 10
-132.6567187614498
 20
168.8365520010724
 30
0.0
 10
-132.6250411867346
 20
168.8392212593982
 30
0.0
 10
-132.5969781426033
 20
168.852965996706
 30
0.0
 10
-132.5762682612029
 20
168.8766152178656
 30
0.0
 10
-132.5661727912437
 20
168.9063854091499
 30
0.0
 10
-132.5683329364531
 20
168.937558813458
 30
0.0
 10
-132.581889598334
 20
168.9663130409119
 30
0.0
 10
-132.5984970138034
 20
168.9786121274685
 30
0.0
 10
-132.6068007324437
 20
168.9847616709407
 30
0.0
 11
-132.6851640724089
 21
168.8488721006882
 31
0.0
 11
-132.6561800531737
 21
168.8390502178123
 31
0.0
 11
-132.6256435913456
 21
168.8410671682806
 31
0.0
 11
-132.5982036433984
 21
168.8546167521402
 31
0.0
 11
-132.5780373099709
 21
168.8776353930584
 31
0.0
 11
-132.5682153826684
 21
168.9066192811931
 31
0.0
 11
-132.5702323422598
 21
168.9371556048986
 31
0.0
 11
-132.5837819874071
 21
168.9645954287295
 31
0.0
 11
-132.6068007324437
 21
168.9847616709407
 31
0.0
  0
SPLINE
  5
372
330
1F
100
AcDbEntity
  8
0
  6
Continuous
 62
     7
100
AcDbSpline
210
0.0
220
0.0
230
1.0
 70
     8
 71
     3
 72
    15
 73
    11
 74
     9
 42
0.000000001
 43
0.0000000001
 44
0.00000001
 40
0.0
 40
0.0
 40
0.0
 40
0.0
 40
0.0306028616142695
 40
0.0612057628369028
 40
0.0918087181819381
 40
0.1224117112913758
 40
0.153014704400819
 40
0.1836176597458622
 40
0.2142205609685191
 40
0.2448234225827608
 40
0.2448234225827608
 40
0.2448234225827608
 40
0.2448234225827608
 10
-134.6068079382982
 20
169.0072758947033
 30
0.0
 10
-134.6079870322865
 20
169.017541267494
 30
0.0
 10
-134.6103452342382
 20
169.0380720237187
 30
0.0
 10
-134.6284823182494
 20
169.0641801813441
 30
0.0
 10
-134.6544082573379
 20
169.0816242955553
 30
0.0
 10
-134.685240959733
 20
169.0877506805373
 30
0.0
 10
-134.7160736621281
 20
169.0816242955553
 30
0.0
 10
-134.7419996012167
 20
169.0641801813442
 30
0.0
 10
-134.7601366852278
 20
169.0380720237187
 30
0.0
 10
-134.7624948871795
 20
169.017541267494
 30
0.0
 10
-134.7636739811678
 20
169.0072758947033
 30
0.0
 11
-134.6068079382982
 21
169.0072758947033
 31
0.0
 11
-134.6127785168787
 21
169.0372906855328
 31
0.0
 11
-134.6297804384075
 21
169.0627361651699
 31
0.0
 11
-134.6552260331401
 21
169.0797380097956
 31
0.0
 11
-134.685240959733
 21
169.08570856137
 31
0.0
 11
-134.7152558863259
 21
169.0797380097956
 31
0.0
 11
-134.7407014810586
 21
169.0627361651699
 31
0.0
 11
-134.7577034025873
 21
169.0372906855328
 31
0.0
 11
-134.7636739811678
 21
169.0072758947033
 31
0.0
  0
SPLINE
  5
373
330
1F
100
AcDbEntity
  8
0
  6
Continuous
 62
     7
100
AcDbSpline
210
0.0
220
0.0
230
1.0
 70
     8
 71
     3
 72
    15
 73
    11
 74
     9
 42
0.000000001
 43
0.0000000001
 44
0.00000001
 40
0.0
 40
0.0
 40
0.0
 40
0.0
 40
0.0306028616142527
 40
0.061205762836894
 40
0.0918087181819135
 40
0.1224117112913678
 40
0.1530147044008222
 40
0.1836176597458653
 40
0.2142205609684907
 40
0.2448234225827435
 40
0.2448234225827435
 40
0.2448234225827435
 40
0.2448234225827435
 10
-134.2930758525586
 20
169.1881939124811
 30
0.0
 10
-134.2942549465469
 20
169.1984592852718
 30
0.0
 10
-134.2966131484987
 20
169.2189900414965
 30
0.0
 10
-134.3147502325099
 20
169.2450981991219
 30
0.0
 10
-134.3406761715983
 20
169.262542313333
 30
0.0
 10
-134.3715088739935
 20
169.2686686983152
 30
0.0
 10
-134.4023415763886
 20
169.262542313333
 30
0.0
 10
-134.4282675154771
 20
169.2450981991219
 30
0.0
 10
-134.4464045994883
 20
169.2189900414965
 30
0.0
 10
-134.44876280144
 20
169.1984592852717
 30
0.0
 10
-134.4499418954284
 20
169.1881939124811
 30
0.0
 11
-134.2930758525586
 21
169.1881939124811
 31
0.0
 11
-134.2990464311391
 21
169.2182087033106
 31
0.0
 11
-134.316048352668
 21
169.2436541829476
 31
0.0
 11
-134.3414939474006
 21
169.2606560275734
 31
0.0
 11
-134.3715088739935
 21
169.2666265791478
 31
0.0
 11
-134.4015238005864
 21
169.2606560275734
 31
0.0
 11
-134.426969395319
 21
169.2436541829476
 31
0.0
 11
-134.4439713168478
 21
169.2182087033106
 31
0.0
 11
-134.4499418954284
 21
169.1881939124811
 31
0.0
  0
SPLINE
  5
374
330
1F
100
AcDbEntity
  8
0
  6
Continuous
 62
     7
100
AcDbSpline
210
0.0
220
0.0
230
1.0
 70
     8
 71
     3
 72
    15
 73
    11
 74
     9
 42
0.000000001
 43
0.0000000001
 44
0.00000001
 40
0.0
 40
0.0
 40
0.0
 40
0.0
 40
0.0306029895000258
 40
0.0612059436970339
 40
0.09180884606775
 40
0.1224117112913448
 40
0.1530145765149674
 40
0.1836174788857071
 40
0.2142204330826994
 40
0.2448234225827197
 40
0.2448234225827197
 40
0.2448234225827197
 40
0.2448234225827197
 10
-132.6459824024263
 20
168.6214917341705
 30
0.0
 10
-132.6357169875361
 20
168.6226708203428
 30
0.0
 10
-132.6151861722407
 20
168.6250290037761
 30
0.0
 10
-132.5890778985237
 20
168.6431659745942
 30
0.0
 10
-132.5716336780848
 20
168.6690918002743
 30
0.0
 10
-132.5655072486842
 20
168.6999244008372
 30
0.0
 10
-132.5716336780848
 20
168.7307570014
 30
0.0
 10
-132.5890778985236
 20
168.7566828270801
 30
0.0
 10
-132.6151861722407
 20
168.7748197978982
 30
0.0
 10
-132.6357169875361
 20
168.7771779813316
 30
0.0
 10
-132.6459824024263
 20
168.7783570675038
 30
0.0
 11
-132.6459824024263
 21
168.6214917341705
 31
0.0
 11
-132.6159674758333
 21
168.6274622857449
 31
0.0
 11
-132.5905218811008
 21
168.6444641303706
 31
0.0
 11
-132.5735199595719
 21
168.6699096100077
 31
0.0
 11
-132.5675493809914
 21
168.6999244008371
 31
0.0
 11
-132.5735199595719
 21
168.7299391916666
 31
0.0
 11
-132.5905218811008
 21
168.7553846713037
 31
0.0
 11
-132.6159674758333
 21
168.7723865159294
 31
0.0
 11
-132.6459824024263
 21
168.7783570675038
 31
0.0
  0
SPLINE
  5
375
330
1F
100
AcDbEntity
  8
0
  6
Continuous
 62
     7
100
AcDbSpline
210
0.0
220
0.0
230
1.0
 70
     8
 71
     3
 72
     9
 73
     5
 74
     3
 42
0.000000001
 43
0.0000000001
 44
0.00000001
 40
0.0
 40
0.0
 40
0.0
 40
0.0
 40
0.0415633106195865
 40
0.0833688919913242
 40
0.0833688919913242
 40
0.0833688919913242
 40
0.0833688919913242
 10
-57.43934969464144
 20
177.3818832496569
 30
0.0
 10
-57.44735997327563
 20
177.3931872699329
 30
0.0
 10
-57.46342720579256
 20
177.4158612126928
 30
0.0
 10
-57.47947626164382
 20
177.4385480248926
 30
0.0
 10
-57.48752410073396
 20
177.4499244008273
 30
0.0
 11
-57.43934969464144
 21
177.3818832496569
 31
0.0
 11
-57.46337600463737
 21
177.4157985149199
 31
0.0
 11
-57.48752410073396
 21
177.4499244008273
 31
0.0
  0
SPLINE
  5
376
330
1F
100
AcDbEntity
  8
0
  6
Continuous
 62
     7
100
AcDbSpline
210
0.0
220
0.0
230
1.0
 70
     8
 71
     3
 72
    21
 73
    17
 74
    15
 42
0.000000001
 43
0.0000000001
 44
0.00000001
 40
0.0
 40
0.0
 40
0.0
 40
0.0
 40
1.053003186481689
 40
2.185958174256676
 40
3.450282742127623
 40
4.861390165144471
 40
6.405389819909355
 40
8.048211154883461
 40
9.743390993886056
 40
11.43857083288864
 40
13.08139216786287
 40
14.62539182262773
 40
16.03649924564449
 40
17.30082381351544
 40
18.43377880129044
 40
19.48678198777212
 40
19.48678198777212
 40
19.48678198777212
 40
19.48678198777212
 10
-26.08148715447706
 20
270.2643548133397
 30
0.0
 10
-25.7837511039768
 20
270.0714894359448
 30
0.0
 10
-25.16567268706922
 20
269.6711149011567
 30
0.0
 10
-24.54475176496358
 20
268.6652043305601
 30
0.0
 10
-24.16920773674761
 20
267.4454240591677
 30
0.0
 10
-24.06334065903954
 20
266.0317550440985
 30
0.0
 10
-24.22078967349391
 20
264.5010396698015
 30
0.0
 10
-24.63436852941485
 20
262.9209785691115
 30
0.0
 10
-25.28326613967668
 20
261.3681859914403
 30
0.0
 10
-26.13616163565668
 20
259.9173923566281
 30
0.0
 10
-27.15206320265602
 20
258.6384926114773
 30
0.0
 10
-28.28216609342095
 20
257.5941041753356
 30
0.0
 10
-29.47662155210129
 20
256.8305964284605
 30
0.0
 10
-30.67777218614442
 20
256.399163488198
 30
0.0
 10
-31.85505319588542
 20
256.2923538835245
 30
0.0
 10
-32.5461998738603
 20
256.5465918961777
 30
0.0
 10
-32.8791338060764
 20
256.669061510141
 30
0.0
 11
-26.08148715447706
 21
270.2643548133397
 31
0.0
 11
-25.24041721320041
 21
269.6307799748123
 31
0.0
 11
-24.61195235073544
 21
268.6881141070849
 31
0.0
 11
-24.2276082967588
 21
267.4836240664214
 31
0.0
 11
-24.10665558104366
 21
266.077709917013
 31
0.0
 11
-24.25516146792765
 21
264.5408686988677
 31
0.0
 11
-24.66567706769743
 21
262.9501648074743
 31
0.0
 11
-25.31761948323944
 21
261.3853626632217
 31
0.0
 11
-26.17829574931633
 21
259.9249274442366
 31
0.0
 11
-27.20454950256926
 21
258.6420926295846
 31
0.0
 11
-28.34491894495503
 21
257.6011831891902
 31
0.0
 11
-29.54222189391083
 21
256.8543968721173
 31
0.0
 11
-30.73642035882756
 21
256.4391780909006
 31
0.0
 11
-31.86763197048851
 21
256.3763504602361
 31
0.0
 11
-32.8791338060764
 21
256.669061510141
 31
0.0
  0
SPLINE
  5
377
330
1F
100
AcDbEntity
  8
0
  6
Continuous
 62
     7
100
AcDbSpline
210
0.0
220
0.0
230
1.0
 70
     8
 71
     3
 72
    11
 73
     7
 74
     5
 42
0.000000001
 43
0.0000000001
 44
0.00000001
 40
0.0
 40
0.0
 40
0.0
 40
0.0
 40
0.7271689720948403
 40
1.48696012558143
 40
2.292094559861819
 40
3.150617347575584
 40
3.150617347575584
 40
3.150617347575584
 40
3.150617347575584
 10
-53.15573748199793
 20
265.1896764510299
 30
0.0
 10
-53.34188240633462
 20
265.346228526623
 30
0.0
 10
-53.72252305971041
 20
265.6663559122605
 30
0.0
 10
-54.17167207943459
 20
266.2923392353416
 30
0.0
 10
-54.54134567563841
 20
267.0147089507908
 30
0.0
 10
-54.69693586193548
 20
267.5482286344112
 30
0.0
 10
-54.77722746695591
 20
267.8235490574654
 30
0.0
 11
-53.15573748199793
 21
265.1896764510299
 31
0.0
 11
-53.69282508682434
 21
265.6798923429868
 31
0.0
 11
-54.14677138835737
 21
266.2891667929192
 31
0.0
 11
-54.51020579377231
 21
267.0076073908938
 31
0.0
 11
-54.77722746695591
 21
267.8235490574654
 31
0.0
  0
SPLINE
  5
378
330
1F
100
AcDbEntity
  8
0
  6
Continuous
 62
     7
100
AcDbSpline
210
0.0
220
0.0
230
1.0
 70
     8
 71
     3
 72
     9
 73
     5
 74
     3
 42
0.000000001
 43
0.0000000001
 44
0.00000001
 40
0.0
 40
0.0
 40
0.0
 40
0.0
 40
0.1235247414899322
 40
0.2303320446272626
 40
0.2303320446272626
 40
0.2303320446272626
 40
0.2303320446272626
 10
-29.79850853181065
 20
244.977769179198
 30
0.0
 10
-29.83783593750359
 20
244.9612368995703
 30
0.0
 10
-29.91116830800878
 20
244.9304097843738
 30
0.0
 10
-29.98696680103998
 20
244.9530635131317
 30
0.0
 10
-30.02211532956065
 20
244.9635682855902
 30
0.0
 11
-29.79850853181065
 21
244.977769179198
 31
0.0
 11
-29.91720002509627
 21
244.9435538061032
 31
0.0
 11
-30.02211532956065
 21
244.9635682855902
 31
0.0
  0
SPLINE
  5
379
330
1F
100
AcDbEntity
  8
0
  6
Continuous
 62
     7
100
AcDbSpline
210
0.0
220
0.0
230
1.0
 70
     8
 71
     3
 72
    11
 73
     7
 74
     5
 42
0.000000001
 43
0.0000000001
 44
0.00000001
 40
0.0
 40
0.0
 40
0.0
 40
0.0
 40
0.2590095572901011
 40
0.4965652887131446
 40
0.7169278336327921
 40
0.9275948567589587
 40
0.9275948567589587
 40
0.9275948567589587
 40
0.9275948567589587
 10
-29.44495514121743
 20
245.1545458744946
 30
0.0
 10
-29.36578613733381
 20
245.1897619349988
 30
0.0
 10
-29.21400571273605
 20
245.257277087393
 30
0.0
 10
-28.97684126888343
 20
245.2989759528362
 30
0.0
 10
-28.75043292578668
 20
245.2913903882202
 30
0.0
 10
-28.61615613920053
 20
245.2376266484715
 30
0.0
 10
-28.55052795021751
 20
245.2113494489256
 30
0.0
 11
-29.44495514121743
 21
245.1545458744946
 31
0.0
 11
-29.20405090202019
 21
245.2496831345749
 31
0.0
 11
-28.97018853460054
 21
245.2914098605408
 31
0.0
 11
-28.75020410874932
 21
245.2785061850828
 31
0.0
 11
-28.55052795021751
 21
245.2113494489256
 31
0.0
  0
SPLINE
  5
37A
330
1F
100
AcDbEntity
  8
0
  6
Continuous
 62
     7
100
AcDbSpline
210
0.0
220
0.0
230
1.0
 70
     8
 71
     3
 72
    11
 73
     7
 74
     5
 42
0.000000001
 43
0.0000000001
 44
0.00000001
 40
0.0
 40
0.0
 40
0.0
 40
0.0
 40
0.0683732341408311
 40
0.1418178632396734
 40
0.2236327599897904
 40
0.3148612369616403
 40
0.3148612369616403
 40
0.3148612369616403
 40
0.3148612369616403
 10
-30.02211532956065
 20
244.9635682855902
 30
0.0
 10
-30.04147243778775
 20
244.9760583133156
 30
0.0
 10
-30.08162240507083
 20
245.0019647935403
 30
0.0
 10
-30.12210894587763
 20
245.0668531078278
 30
0.0
 10
-30.14781795959455
 20
245.1456182338328
 30
0.0
 10
-30.15059688185725
 20
245.2034933959627
 30
0.0
 10
-30.15206192240399
 20
245.2340051857936
 30
0.0
 11
-30.02211532956065
 21
244.9635682855902
 31
0.0
 11
-30.0768220373704
 21
245.0045814010791
 31
0.0
 11
-30.11792748984558
 21
245.0654456424936
 31
0.0
 11
-30.14342273062386
 21
245.1431866899195
 31
0.0
 11
-30.15206192240399
 21
245.2340051857936
 31
0.0
  0
SPLINE
  5
37B
330
1F
100
AcDbEntity
  8
0
  6
Continuous
 62
     7
100
AcDbSpline
210
0.0
220
0.0
230
1.0
 70
     8
 71
     3
 72
     9
 73
     5
 74
     3
 42
0.000000001
 43
0.0000000001
 44
0.00000001
 40
0.0
 40
0.0
 40
0.0
 40
0.0
 40
0.0494098952013286
 40
0.0921328150616743
 40
0.0921328150616743
 40
0.0921328150616743
 40
0.0921328150616743
 10
-29.05604641156484
 20
242.8808278385353
 30
0.0
 10
-29.04031544973168
 20
242.8874407501997
 30
0.0
 10
-29.01098250073522
 20
242.8997715845703
 30
0.0
 10
-28.98066310341416
 20
242.8907101048247
 30
0.0
 10
-28.96660369246482
 20
242.8865081959783
 30
0.0
 11
-29.05604641156484
 21
242.8808278385353
 31
0.0
 11
-29.0085698142506
 21
242.8945139877732
 31
0.0
 11
-28.96660369246482
 21
242.8865081959783
 31
0.0
  0
SPLINE
  5
37C
330
1F
100
AcDbEntity
  8
0
  6
Continuous
 62
     7
100
AcDbSpline
210
0.0
220
0.0
230
1.0
 70
     8
 71
     3
 72
    11
 73
     7
 74
     5
 42
0.000000001
 43
0.0000000001
 44
0.00000001
 40
0.0
 40
0.0
 40
0.0
 40
0.0
 40
0.0683732341408851
 40
0.1418178632397001
 40
0.2236327599897802
 40
0.3148612369616839
 40
0.3148612369616839
 40
0.3148612369616839
 40
0.3148612369616839
 10
-27.90079498600099
 20
241.8673065192047
 30
0.0
 10
-27.92015209422809
 20
241.8797965469302
 30
0.0
 10
-27.96030206151115
 20
241.9057030271549
 30
0.0
 10
-28.00078860231806
 20
241.9705913414421
 30
0.0
 10
-28.02649761603492
 20
242.0493564674474
 30
0.0
 10
-28.02927653829759
 20
242.1072316295771
 30
0.0
 10
-28.03074157884433
 20
242.1377434194081
 30
0.0
 11
-27.90079498600099
 21
241.8673065192047
 31
0.0
 11
-27.95550169381076
 21
241.9083196346937
 31
0.0
 11
-27.99660714628599
 21
241.9691838761081
 31
0.0
 11
-28.02210238706423
 21
242.046924923534
 31
0.0
 11
-28.03074157884433
 21
242.1377434194081
 31
0.0
  0
SPLINE
  5
37D
330
1F
100
AcDbEntity
  8
0
  6
Continuous
 62
     7
100
AcDbSpline
210
0.0
220
0.0
230
1.0
 70
     8
 71
     3
 72
    11
 73
     7
 74
     5
 42
0.000000001
 43
0.0000000001
 44
0.00000001
 40
0.0
 40
0.0
 40
0.0
 40
0.0
 40
0.0273492920126369
 40
0.0567271413537357
 40
0.0894530984881321
 40
0.1259444898791816
 40
0.1259444898791816
 40
0.1259444898791816
 40
0.1259444898791816
 10
-28.96660369246482
 20
242.8865081959783
 30
0.0
 10
-28.95886084963933
 20
242.8815121851884
 30
0.0
 10
-28.94280086922561
 20
242.8711495868479
 30
0.0
 10
-28.92660625056973
 20
242.8451942661058
 30
0.0
 10
-28.91632264890863
 20
242.8136882155409
 30
0.0
 10
-28.91521107155586
 20
242.7905381520308
 30
0.0
 10
-28.91462505532749
 20
242.778333435897
 30
0.0
 11
-28.96660369246482
 21
242.8865081959783
 31
0.0
 11
-28.94472100934093
 21
242.8701029497828
 31
0.0
 11
-28.92827882835084
 21
242.845757253217
 31
0.0
 11
-28.91808073203953
 21
242.8146608342466
 31
0.0
 11
-28.91462505532749
 21
242.778333435897
 31
0.0
  0
SPLINE
  5
37E
330
1F
100
AcDbEntity
  8
0
  6
Continuous
 62
     7
100
AcDbSpline
210
0.0
220
0.0
230
1.0
 70
     8
 71
     3
 72
    13
 73
     9
 74
     7
 42
0.000000001
 43
0.0000000001
 44
0.00000001
 40
0.0
 40
0.0
 40
0.0
 40
0.0
 40
0.1109132967657129
 40
0.2340628223879263
 40
0.3637524072084114
 40
0.4934419920289249
 40
0.6165915176511452
 40
0.7275048144168713
 40
0.7275048144168713
 40
0.7275048144168713
 40
0.7275048144168713
 10
-49.59749840503403
 20
277.9130979607635
 30
0.0
 10
-49.63163211072575
 20
277.8986609579031
 30
0.0
 10
-49.70366524224187
 20
277.8681942405117
 30
0.0
 10
-49.82358588349658
 20
277.8456335602441
 30
0.0
 10
-49.95105179562728
 20
277.8369208386306
 30
0.0
 10
-50.078517707758
 20
277.8456335602441
 30
0.0
 10
-50.19843834901275
 20
277.8681942405116
 30
0.0
 10
-50.27047148052887
 20
277.8986609579033
 30
0.0
 10
-50.30460518622058
 20
277.9130979607635
 30
0.0
 11
-49.59749840503403
 21
277.9130979607635
 31
0.0
 11
-49.70105186227874
 21
277.8733683628358
 31
0.0
 11
-49.82164227307604
 21
277.8483931994879
 31
0.0
 11
-49.95105179562728
 21
277.8398747227116
 31
0.0
 11
-50.08046131817855
 21
277.8483931994879
 31
0.0
 11
-50.20105172897586
 21
277.8733683628358
 31
0.0
 11
-50.30460518622058
 21
277.9130979607635
 31
0.0
  0
SPLINE
  5
37F
330
1F
100
AcDbEntity
  8
0
  6
Continuous
 62
     7
100
AcDbSpline
210
0.0
220
0.0
230
1.0
 70
     8
 71
     3
 72
     9
 73
     5
 74
     3
 42
0.000000001
 43
0.0000000001
 44
0.00000001
 40
0.0
 40
0.0
 40
0.0
 40
0.0
 40
0.0418629794264753
 40
0.0837203170201065
 40
0.0837203170201065
 40
0.0837203170201065
 40
0.0837203170201065
 10
-26.15690860869998
 20
270.3006909923988
 30
0.0
 10
-26.14427081792384
 20
270.2947730033836
 30
0.0
 10
-26.11899694816827
 20
270.2829378048656
 30
0.0
 10
-26.09398985439077
 20
270.2705488715502
 30
0.0
 10
-26.08148715447706
 20
270.2643548133397
 30
0.0
 11
-26.15690860869998
 21
270.3006909923988
 31
0.0
 11
-26.11906194362954
 21
270.282798563954
 31
0.0
 11
-26.08148715447706
 21
270.2643548133397
 31
0.0
  0
SPLINE
  5
380
330
1F
100
AcDbEntity
  8
0
  6
Continuous
 62
     7
100
AcDbSpline
210
0.0
220
0.0
230
1.0
 70
     8
 71
     3
 72
    15
 73
    11
 74
     9
 42
0.000000001
 43
0.0000000001
 44
0.00000001
 40
0.0
 40
0.0
 40
0.0
 40
0.0
 40
0.0104402819099335
 40
0.0227536397252951
 40
0.045973064649809
 40
0.0742368811658298
 40
0.1047899175092075
 40
0.1341870030991807
 40
0.159317317829577
 40
0.1786002424048195
 40
0.1786002424048195
 40
0.1786002424048195
 40
0.1786002424048195
 10
-37.48764138012078
 20
279.709578585913
 30
0.0
 10
-37.48823333938125
 20
279.7130750724904
 30
0.0
 10
-37.48952347220449
 20
279.7206953399748
 30
0.0
 10
-37.50046983608966
 20
279.7323514904527
 30
0.0
 10
-37.51948959214501
 20
279.74231362922
 30
0.0
 10
-37.54637352082759
 20
279.7484980397297
 30
0.0
 10
-37.57600911943948
 20
279.7494937448258
 30
0.0
 10
-37.60390472937151
 20
279.7447525690528
 30
0.0
 10
-37.62788146111559
 20
279.7361570754924
 30
0.0
 10
-37.63760319174401
 20
279.7247164105348
 30
0.0
 10
-37.6418240769988
 20
279.7197492043516
 30
0.0
 11
-37.48764138012078
 21
279.709578585913
 31
0.0
 11
-37.49028626632097
 21
279.7196783009523
 31
0.0
 11
-37.49812920674282
 21
279.7291707749855
 31
0.0
 11
-37.51829544250297
 21
279.7406800986701
 31
0.0
 11
-37.54573529774817
 21
279.7474548748928
 31
0.0
 11
-37.57627168595337
 21
279.7484633178771
 31
0.0
 11
-37.60525566185166
 21
279.7435523325573
 31
0.0
 11
-37.62827440043716
 21
279.7334691626181
 31
0.0
 11
-37.6418240769988
 21
279.7197492043516
 31
0.0
  0
SPLINE
  5
381
330
1F
100
AcDbEntity
  8
0
  6
Continuous
 62
     7
100
AcDbSpline
210
0.0
220
0.0
230
1.0
 70
     8
 71
     3
 72
     9
 73
     5
 74
     3
 42
0.000000001
 43
0.0000000001
 44
0.00000001
 40
0.0
 40
0.0
 40
0.0
 40
0.0
 40
0.00544801779364
 40
0.010597843218586
 40
0.010597843218586
 40
0.010597843218586
 40
0.010597843218586
 10
-37.49032439129493
 20
279.6994106105855
 30
0.0
 10
-37.48954057419294
 20
279.7010686630742
 30
0.0
 10
-37.48801586029359
 20
279.7042940221202
 30
0.0
 10
-37.48776383682464
 20
279.707850418991
 30
0.0
 10
-37.48764138012078
 20
279.709578585913
 30
0.0
 11
-37.49032439129493
 21
279.6994106105855
 31
0.0
 11
-37.48830927901773
 21
279.7044722539857
 31
0.0
 11
-37.48764138012078
 21
279.709578585913
 31
0.0
  0
SPLINE
  5
382
330
1F
100
AcDbEntity
  8
0
  6
Continuous
 62
     7
100
AcDbSpline
210
0.0
220
0.0
230
1.0
 70
     8
 71
     3
 72
    11
 73
     7
 74
     5
 42
0.000000001
 43
0.0000000001
 44
0.00000001
 40
0.0
 40
0.0
 40
0.0
 40
0.0
 40
0.0095332758586866
 40
0.0213406195755567
 40
0.0285610244622432
 40
0.0377318684606119
 40
0.0377318684606119
 40
0.0377318684606119
 40
0.0377318684606119
 10
-37.66398011059616
 20
279.7585328456931
 30
0.0
 10
-37.66118289039859
 20
279.7600547601115
 30
0.0
 10
-37.65492120923587
 20
279.7634616398769
 30
0.0
 10
-37.64771326396427
 20
279.7698196143286
 30
0.0
 10
-37.64222279052461
 20
279.777693980012
 30
0.0
 10
-37.64144352566127
 20
279.7831888159547
 30
0.0
 10
-37.64100753701175
 20
279.7862631584258
 30
0.0
 11
-37.66398011059616
 21
279.7585328456931
 31
0.0
 11
-37.65576325679005
 21
279.763366750238
 31
0.0
 11
-37.64697813663074
 21
279.7712556737567
 31
0.0
 11
-37.64307062445774
 21
279.7773273819783
 31
0.0
 11
-37.64100753701175
 21
279.7862631584258
 31
0.0
  0
SPLINE
  5
383
330
1F
100
AcDbEntity
  8
0
  6
Continuous
 62
     7
100
AcDbSpline
210
0.0
220
0.0
230
1.0
 70
     8
 71
     3
 72
    11
 73
     7
 74
     5
 42
0.000000001
 43
0.0000000001
 44
0.00000001
 40
0.0
 40
0.0
 40
0.0
 40
0.0
 40
0.0174075066904723
 40
0.036735939146573
 40
0.0570903136046959
 40
0.077443143556159
 40
0.077443143556159
 40
0.077443143556159
 40
0.077443143556159
 10
-38.64977365740705
 20
278.9758376600242
 30
0.0
 10
-38.64441621836517
 20
278.9735700471822
 30
0.0
 10
-38.6331101392211
 20
278.9687846038416
 30
0.0
 10
-38.61429135869913
 20
278.9652797282257
 30
0.0
 10
-38.59427360256502
 20
278.9637776411136
 30
0.0
 10
-38.5807407375715
 20
278.9650545329251
 30
0.0
 10
-38.57397456220852
 20
278.9656929621018
 30
0.0
 11
-38.64977365740705
 21
278.9758376600242
 31
0.0
 11
-38.63352097651033
 21
278.9696029435917
 31
0.0
 11
-38.61459377286408
 21
278.9656851203937
 31
0.0
 11
-38.59428313465057
 21
278.9643514817932
 31
0.0
 11
-38.57397456220852
 21
278.9656929621018
 31
0.0
  0
SPLINE
  5
384
330
1F
100
AcDbEntity
  8
0
  6
Continuous
 62
     7
100
AcDbSpline
210
0.0
220
0.0
230
1.0
 70
     8
 71
     3
 72
    21
 73
    17
 74
    15
 42
0.000000001
 43
0.0000000001
 44
0.00000001
 40
0.0
 40
0.0
 40
0.0
 40
0.0
 40
0.0093415648163017
 40
0.0232182040058788
 40
0.0359250364743637
 40
0.0491501801113979
 40
0.0600643512604885
 40
0.068589877630622
 40
0.0770368742418984
 40
0.0873025973617965
 40
0.1047925745303384
 40
0.1202578337818361
 40
0.1282513962249749
 40
0.137825155852719
 40
0.1441316863841292
 40
0.1519382475209081
 40
0.1519382475209081
 40
0.1519382475209081
 40
0.1519382475209081
 10
-38.99954413133193
 20
278.9288807802712
 30
0.0
 10
-38.99670898309433
 20
278.9275867371131
 30
0.0
 10
-38.9896622957213
 20
278.9243704376261
 30
0.0
 10
-38.97810253567253
 20
278.9210586090564
 30
0.0
 10
-38.9650491459614
 20
278.9186207385661
 30
0.0
 10
-38.95280092764177
 20
278.9174819179507
 30
0.0
 10
-38.94190614613937
 20
278.9173087031544
 30
0.0
 10
-38.93261585790945
 20
278.91773751011
 30
0.0
 10
-38.92357819766212
 20
278.9186572555186
 30
0.0
 10
-38.91166698583606
 20
278.9206479863612
 30
0.0
 10
-38.89773073431667
 20
278.9244955129361
 30
0.0
 10
-38.88525788024409
 20
278.930258472026
 30
0.0
 10
-38.87620382197466
 20
278.9365950256928
 30
0.0
 10
-38.8706259554228
 20
278.9423507051335
 30
0.0
 10
-38.86652608462673
 20
278.9492695554134
 30
0.0
 10
-38.86596250286858
 20
278.9539965252441
 30
0.0
 10
-38.86565076595539
 20
278.9566112184334
 30
0.0
 11
-38.99954413133193
 21
278.9288807802712
 31
0.0
 11
-38.99097000323616
 21
278.9251728155068
 31
0.0
 11
-38.97768173374627
 21
278.9211749432989
 31
0.0
 11
-38.965191020479
 21
278.918841345867
 31
0.0
 11
-38.9520246397569
 21
278.9175960175
 31
0.0
 11
-38.94111184401481
 21
278.9174227569764
 31
0.0
 11
-38.93259546008576
 21
278.9178174758952
 31
0.0
 11
-38.9241922838174
 21
278.9186767653205
 31
0.0
 11
-38.91406883468554
 21
278.9203799520585
 31
0.0
 11
-38.89724353802536
 21
278.925155795218
 31
0.0
 11
-38.88329301707111
 21
278.9318309122098
 31
0.0
 11
-38.87678410373574
 21
278.9364710713411
 31
0.0
 11
-38.87021210710358
 21
278.9434328023724
 31
0.0
 11
-38.86716095992086
 21
278.9489521151667
 31
0.0
 11
-38.86565076595539
 21
278.9566112184334
 31
0.0
  0
SPLINE
  5
385
330
1F
100
AcDbEntity
  8
0
  6
Continuous
 62
     7
100
AcDbSpline
210
0.0
220
0.0
230
1.0
 70
     8
 71
     3
 72
     9
 73
     5
 74
     3
 42
0.000000001
 43
0.0000000001
 44
0.00000001
 40
0.0
 40
0.0
 40
0.0
 40
0.0
 40
0.0056139522385946
 40
0.0116607878888982
 40
0.0116607878888982
 40
0.0116607878888982
 40
0.0116607878888982
 10
-38.87868675705394
 20
278.9349604974025
 30
0.0
 10
-38.88021349009892
 20
278.9360466010043
 30
0.0
 10
-38.88338469115426
 20
278.9383025392481
 30
0.0
 10
-38.88683426648696
 20
278.9401052328541
 30
0.0
 10
-38.88862308868082
 20
278.9410400314076
 30
0.0
 11
-38.87868675705394
 21
278.9349604974025
 31
0.0
 11
-38.88333148386207
 21
278.9381137461617
 31
0.0
 11
-38.88862308868082
 21
278.9410400314076
 31
0.0
  0
SPLINE
  5
386
330
1F
100
AcDbEntity
  8
0
  6
Continuous
 62
     7
100
AcDbSpline
210
0.0
220
0.0
230
1.0
 70
     8
 71
     3
 72
     9
 73
     5
 74
     3
 42
0.000000001
 43
0.0000000001
 44
0.00000001
 40
0.0
 40
0.0
 40
0.0
 40
0.0
 40
0.0161514216972972
 40
0.0373864905638139
 40
0.0373864905638139
 40
0.0373864905638139
 40
0.0373864905638139
 10
-38.86565076595539
 20
278.9566112184334
 30
0.0
 10
-38.86713973231619
 20
278.9619974798463
 30
0.0
 10
-38.87058633307338
 20
278.9744653153223
 30
0.0
 10
-38.88208945081472
 20
278.9807638298302
 30
0.0
 10
-38.88862308868082
 20
278.9843413015968
 30
0.0
 11
-38.86565076595539
 21
278.9566112184334
 31
0.0
 11
-38.8716212964915
 21
278.9716185924754
 31
0.0
 11
-38.88862308868082
 21
278.9843413015968
 31
0.0
  0
SPLINE
  5
387
330
1F
100
AcDbEntity
  8
0
  6
Continuous
 62
     7
100
AcDbSpline
210
0.0
220
0.0
230
1.0
 70
     8
 71
     3
 72
    13
 73
     9
 74
     7
 42
0.000000001
 43
0.0000000001
 44
0.00000001
 40
0.0
 40
0.0
 40
0.0
 40
0.0
 40
0.0236350718885223
 40
0.0501743061398133
 40
0.0773298335028299
 40
0.1026756986562334
 40
0.1242100720914894
 40
0.1410906580584797
 40
0.1410906580584797
 40
0.1410906580584797
 40
0.1410906580584797
 10
-37.76240506556272
 20
279.4195219559464
 30
0.0
 10
-37.75505670068644
 20
279.4165966281374
 30
0.0
 10
-37.73945703545496
 20
279.4103865364062
 30
0.0
 10
-37.7135937079974
 20
279.4075213579224
 30
0.0
 10
-37.6871222138682
 20
279.4084572680836
 30
0.0
 10
-37.66310706565335
 20
279.4140289711999
 30
0.0
 10
-37.64293007895817
 20
279.422570270643
 30
0.0
 10
-37.63477719378115
 20
279.4326523700732
 30
0.0
 10
-37.6311945982014
 20
279.437082726984
 30
0.0
 11
-37.76240506556272
 21
279.4195219559464
 31
0.0
 11
-37.74009783348356
 21
279.4117114673672
 31
0.0
 11
-37.71379386808886
 21
279.4081855300829
 31
0.0
 11
-37.68666415962296
 21
279.4093694271404
 31
0.0
 11
-37.66197932142589
 21
279.4151202160775
 31
0.0
 11
-37.64271544421911
 21
279.4247448013332
 31
0.0
 11
-37.6311945982014
 21
279.437082726984
 31
0.0
  0
SPLINE
  5
388
330
1F
100
AcDbEntity
  8
0
  6
Continuous
 62
     7
100
AcDbSpline
210
0.0
220
0.0
230
1.0
 70
     8
 71
     3
 72
     9
 73
     5
 74
     3
 42
0.000000001
 43
0.0000000001
 44
0.00000001
 40
0.0
 40
0.0
 40
0.0
 40
0.0
 40
0.016151513241391
 40
0.0373867265060245
 40
0.0373867265060245
 40
0.0373867265060245
 40
0.0373867265060245
 10
-38.47589491812042
 20
279.7925108836326
 30
0.0
 10
-38.47440593883573
 20
279.7871245933832
 30
0.0
 10
-38.47095930594671
 20
279.7746566831408
 30
0.0
 10
-38.45945611414817
 20
279.7683581326378
 30
0.0
 10
-38.45292243102293
 20
279.7647806386765
 30
0.0
 11
-38.47589491812042
 21
279.7925108836326
 31
0.0
 11
-38.46992434292167
 21
279.7775034288364
 31
0.0
 11
-38.45292243102293
 21
279.7647806386765
 31
0.0
  0
SPLINE
  5
389
330
1F
100
AcDbEntity
  8
0
  6
Continuous
 62
     7
100
AcDbSpline
210
0.0
220
0.0
230
1.0
 70
     8
 71
     3
 72
     9
 73
     5
 74
     3
 42
0.000000001
 43
0.0000000001
 44
0.00000001
 40
0.0
 40
0.0
 40
0.0
 40
0.0
 40
0.0262047935376654
 40
0.0482531218035142
 40
0.0482531218035142
 40
0.0482531218035142
 40
0.0482531218035142
 10
-38.41780078551219
 20
279.7870844095517
 30
0.0
 10
-38.42650300290237
 20
279.785613707214
 30
0.0
 10
-38.44252713217163
 20
279.7829055585934
 30
0.0
 10
-38.45648218223307
 20
279.7746379707485
 30
0.0
 10
-38.46285866796015
 20
279.770860248538
 30
0.0
 11
-38.41780078551219
 21
279.7870844095517
 31
0.0
 11
-38.44329721280998
 21
279.7810326772517
 31
0.0
 11
-38.46285866796015
 21
279.770860248538
 31
0.0
  0
SPLINE
  5
38A
330
1F
100
AcDbEntity
  8
0
  6
Continuous
 62
     7
100
AcDbSpline
210
0.0
220
0.0
230
1.0
 70
     8
 71
     3
 72
    13
 73
     9
 74
     7
 42
0.000000001
 43
0.0000000001
 44
0.00000001
 40
0.0
 40
0.0
 40
0.0
 40
0.0
 40
0.0268280616333798
 40
0.0569910778663497
 40
0.0871540936472679
 40
0.1139821476394707
 40
0.1352173664626429
 40
0.1513688828727597
 40
0.1513688828727597
 40
0.1513688828727597
 40
0.1513688828727597
 10
-38.69177249929348
 20
279.7732839617507
 30
0.0
 10
-38.70015548941326
 20
279.7765187652651
 30
0.0
 10
-38.71796354854429
 20
279.7833904769026
 30
0.0
 10
-38.74724372705899
 20
279.7855940509181
 30
0.0
 10
-38.77646204384104
 20
279.7830367688883
 30
0.0
 10
-38.80105978278232
 20
279.7750867124001
 30
0.0
 10
-38.82071621170795
 20
279.7632675235254
 30
0.0
 10
-38.82417275989617
 20
279.7508976441076
 30
0.0
 10
-38.82566602388957
 20
279.7455537048498
 30
0.0
 11
-38.69177249929348
 21
279.7732839617507
 31
0.0
 11
-38.71721809057406
 21
279.7817849213618
 31
0.0
 11
-38.74723301309513
 21
279.7847702102471
 31
0.0
 11
-38.77724793561617
 21
279.7817849213618
 31
0.0
 11
-38.80269352689675
 21
279.7732839617507
 31
0.0
 11
-38.81969544611901
 21
279.7605611661104
 31
0.0
 11
-38.82566602388957
 21
279.7455537048498
 31
0.0
  0
SPLINE
  5
38B
330
1F
100
AcDbEntity
  8
0
  6
Continuous
 62
     7
100
AcDbSpline
210
0.0
220
0.0
230
1.0
 70
     8
 71
     3
 72
     9
 73
     5
 74
     3
 42
0.000000001
 43
0.0000000001
 44
0.00000001
 40
0.0
 40
0.0
 40
0.0
 40
0.0
 40
0.0013805672128673
 40
0.0027662435211181
 40
0.0027662435211181
 40
0.0027662435211181
 40
0.0027662435211181
 10
-38.82566602388957
 20
279.7455537048498
 30
0.0
 10
-38.82565786661305
 20
279.7450932357811
 30
0.0
 10
-38.82564150192129
 20
279.7441705946269
 30
0.0
 10
-38.82552848341039
 20
279.743254752339
 30
0.0
 10
-38.82547185981625
 20
279.742795986317
 30
0.0
 11
-38.82566602388957
 21
279.7455537048498
 31
0.0
 11
-38.82561746784116
 21
279.744173991435
 31
0.0
 11
-38.82547185981625
 21
279.742795986317
 31
0.0
  0
SPLINE
  5
38C
330
1F
100
AcDbEntity
  8
0
  6
Continuous
 62
     7
100
AcDbSpline
210
0.0
220
0.0
230
1.0
 70
     8
 71
     3
 72
     9
 73
     5
 74
     3
 42
0.000000001
 43
0.0000000001
 44
0.00000001
 40
0.0
 40
0.0
 40
0.0
 40
0.0
 40
0.0161514216973369
 40
0.0373864905637628
 40
0.0373864905637628
 40
0.0373864905637628
 40
0.0373864905637628
 10
-38.42196659535105
 20
279.1784533037356
 30
0.0
 10
-38.42345556171184
 20
279.1838395651486
 30
0.0
 10
-38.42690216246896
 20
279.1963074006246
 30
0.0
 10
-38.43840528021033
 20
279.2026059151322
 30
0.0
 10
-38.44493891807647
 20
279.2061833868989
 30
0.0
 11
-38.42196659535105
 21
279.1784533037356
 31
0.0
 11
-38.42793712588713
 21
279.1934606777776
 31
0.0
 11
-38.44493891807647
 21
279.2061833868989
 31
0.0
  0
SPLINE
  5
38D
330
1F
100
AcDbEntity
  8
0
  6
Continuous
 62
     7
100
AcDbSpline
210
0.0
220
0.0
230
1.0
 70
     8
 71
     3
 72
    21
 73
    17
 74
    15
 42
0.000000001
 43
0.0000000001
 44
0.00000001
 40
0.0
 40
0.0
 40
0.0
 40
0.0
 40
0.0111959829068187
 40
0.0232186324668804
 40
0.0339836406437535
 40
0.0491501334586012
 40
0.0684367840425482
 40
0.0872835599269501
 40
0.0952578790227726
 40
0.1046780669039645
 40
0.1118103388536447
 40
0.1202686271399783
 40
0.1296296346359411
 40
0.1378395767262529
 40
0.1462427391393152
 40
0.1519562202738671
 40
0.1519562202738671
 40
0.1519562202738671
 40
0.1519562202738671
 10
-38.55585996072753
 20
279.1507228655735
 30
0.0
 10
-38.55245177760105
 20
279.1491914565559
 30
0.0
 10
-38.54538376143388
 20
279.1460155735699
 30
0.0
 10
-38.53443561276376
 20
279.1429642813365
 30
0.0
 10
-38.52201147851807
 20
279.1405477505371
 30
0.0
 10
-38.50698253098628
 20
279.1390591390364
 30
0.0
 10
-38.48917592328151
 20
279.1392469938544
 30
0.0
 10
-38.47389496668237
 20
279.1413023136
 30
0.0
 10
-38.46213849387267
 20
279.1441084070063
 30
0.0
 10
-38.45433660322671
 20
279.1465888449
 30
0.0
 10
-38.44662183888327
 20
279.1497716585358
 30
0.0
 10
-38.43925133625938
 20
279.1536539122206
 30
0.0
 10
-38.43215145381832
 20
279.1587381669945
 30
0.0
 10
-38.42622541241276
 20
279.1650909149061
 30
0.0
 10
-38.42255368428349
 20
279.1718240078208
 30
0.0
 10
-38.42213574599772
 20
279.1765432618145
 30
0.0
 10
-38.42196659535105
 20
279.1784533037356
 30
0.0
 11
-38.55585996072753
 21
279.1507228655735
 31
0.0
 11
-38.54553960230544
 21
279.1463823538259
 31
0.0
 11
-38.53399756314187
 21
279.1430170286011
 31
0.0
 11
-38.52342986404982
 21
279.140965409975
 31
0.0
 11
-38.5083404691525
 21
279.1394381028022
 31
0.0
 11
-38.4890549716914
 21
279.1396489913965
 31
0.0
 11
-38.4703846640812
 21
279.1422220373607
 31
0.0
 11
-38.46263055810276
 21
279.1440831131275
 31
0.0
 11
-38.45366050951211
 21
279.1469602928973
 31
0.0
 11
-38.44707349985281
 21
279.149695362074
 31
0.0
 11
-38.43960884646671
 21
279.153672997512
 31
0.0
 11
-38.43205998726818
 21
279.1592086250685
 31
0.0
 11
-38.42652793649918
 21
279.1652748876746
 31
0.0
 11
-38.42278588317015
 21
279.172798859033
 31
0.0
 11
-38.42196659535105
 21
279.1784533037356
 31
0.0
  0
SPLINE
  5
38E
330
1F
100
AcDbEntity
  8
0
  6
Continuous
 62
     7
100
AcDbSpline
210
0.0
220
0.0
230
1.0
 70
     8
 71
     3
 72
    11
 73
     7
 74
     5
 42
0.000000001
 43
0.0000000001
 44
0.00000001
 40
0.0
 40
0.0
 40
0.0
 40
0.0
 40
0.0206229914306183
 40
0.0404664663009423
 40
0.0585649913103409
 40
0.0742089077332648
 40
0.0742089077332648
 40
0.0742089077332648
 40
0.0742089077332648
 10
-39.18540098895923
 20
279.5195301515564
 30
0.0
 10
-39.19228898636889
 20
279.519519331579
 30
0.0
 10
-39.20580462505125
 20
279.5194980858554
 30
0.0
 10
-39.22508191762125
 20
279.5161024240559
 30
0.0
 10
-39.24232926950344
 20
279.5108684804258
 30
0.0
 10
-39.25188356490256
 20
279.504851162364
 30
0.0
 10
-39.25631319339371
 20
279.5020613632904
 30
0.0
 11
-39.18540098895923
 21
279.5195301515564
 31
0.0
 11
-39.20601415978604
 21
279.5188938159167
 31
0.0
 11
-39.22558055724437
 21
279.5155893267647
 31
0.0
 11
-39.24274354386469
 21
279.5098457565772
 31
0.0
 11
-39.25631319339371
 21
279.5020613632904
 31
0.0
  0
SPLINE
  5
38F
330
1F
100
AcDbEntity
  8
0
  6
Continuous
 62
     7
100
AcDbSpline
210
0.0
220
0.0
230
1.0
 70
     8
 71
     3
 72
    13
 73
     9
 74
     7
 42
0.000000001
 43
0.0000000001
 44
0.00000001
 40
0.0
 40
0.0
 40
0.0
 40
0.0
 40
0.0228624415142229
 40
0.0485148359427413
 40
0.0748874322017702
 40
0.0997588029266143
 40
0.121233207991765
 40
0.1383384718911444
 40
0.1383384718911444
 40
0.1383384718911444
 40
0.1383384718911444
 10
-38.69177249929348
 20
279.7299826915615
 30
0.0
 10
-38.69887189178399
 20
279.7328301900453
 30
0.0
 10
-38.7139370356205
 20
279.7388726584122
 30
0.0
 10
-38.7389493472618
 20
279.7418690219571
 30
0.0
 10
-38.76469375423294
 20
279.7412798223142
 30
0.0
 10
-38.78841281087193
 20
279.7362859312143
 30
0.0
 10
-38.80861438130228
 20
279.7284170376719
 30
0.0
 10
-38.81756079894047
 20
279.7189988331721
 30
0.0
 10
-38.82152741234776
 20
279.714823029535
 30
0.0
 11
-38.69177249929348
 21
279.7299826915615
 31
0.0
 11
-38.71332356000568
 21
279.7376143876875
 31
0.0
 11
-38.73871884371101
 21
279.7412371948305
 31
0.0
 11
-38.76507939568801
 21
279.7404402223835
 31
0.0
 11
-38.78941675153362
 21
279.7353140037161
 31
0.0
 11
-38.80897165327745
 21
279.7264395293845
 31
0.0
 11
-38.82152741234776
 21
279.714823029535
 31
0.0
  0
SPLINE
  5
390
330
1F
100
AcDbEntity
  8
0
  6
Continuous
 62
     7
100
AcDbSpline
210
0.0
220
0.0
230
1.0
 70
     8
 71
     3
 72
    13
 73
     9
 74
     7
 42
0.000000001
 43
0.0000000001
 44
0.00000001
 40
0.0
 40
0.0
 40
0.0
 40
0.0
 40
0.0056139117293684
 40
0.011660696069447
 40
0.0384886495650297
 40
0.068651583295537
 40
0.0988145554415657
 40
0.1256426014424433
 40
0.1256426014424433
 40
0.1256426014424433
 40
0.1256426014424433
 10
-37.65404359359602
 20
279.7646124868485
 30
0.0
 10
-37.65557269087943
 20
279.7656937758254
 30
0.0
 10
-37.65874879918015
 20
279.7679397144591
 30
0.0
 10
-37.6700496489855
 20
279.7740621555125
 30
0.0
 10
-37.69036461944144
 20
279.7804339651708
 30
0.0
 10
-37.71938643569105
 20
279.783004997676
 30
0.0
 10
-37.74871901900283
 20
279.780797697446
 30
0.0
 10
-37.76652067337611
 20
279.7739264404998
 30
0.0
 10
-37.77490065152929
 20
279.7706918459706
 30
0.0
 11
-37.65404359359602
 21
279.7646124868485
 31
0.0
 11
-37.65868829265624
 21
279.7677657092609
 31
0.0
 11
-37.66397985973718
 21
279.7706919714001
 31
0.0
 11
-37.68942535847047
 21
279.7791928841648
 31
0.0
 11
-37.71944020367863
 21
279.7821781327626
 31
0.0
 11
-37.7494550758929
 21
279.7791928162831
 31
0.0
 11
-37.77490065152929
 21
279.7706918459706
 31
0.0
  0
SPLINE
  5
391
330
1F
100
AcDbEntity
  8
0
  6
Continuous
 62
     7
100
AcDbSpline
210
0.0
220
0.0
230
1.0
 70
     8
 71
     3
 72
     9
 73
     5
 74
     3
 42
0.000000001
 43
0.0000000001
 44
0.00000001
 40
0.0
 40
0.0
 40
0.0
 40
0.0
 40
0.0161514216972867
 40
0.037386490563775
 40
0.037386490563775
 40
0.037386490563775
 40
0.037386490563775
 10
-37.72242571032766
 20
279.2723670318283
 30
0.0
 10
-37.72391467668847
 20
279.2777532932413
 30
0.0
 10
-37.72736127744562
 20
279.2902211287172
 30
0.0
 10
-37.73886439518696
 20
279.296519643225
 30
0.0
 10
-37.74539803305308
 20
279.3000971149917
 30
0.0
 11
-37.72242571032766
 21
279.2723670318283
 31
0.0
 11
-37.72839624086374
 21
279.2873744058703
 31
0.0
 11
-37.74539803305308
 21
279.3000971149917
 31
0.0
  0
SPLINE
  5
392
330
1F
100
AcDbEntity
  8
0
  6
Continuous
 62
     7
100
AcDbSpline
210
0.0
220
0.0
230
1.0
 70
     8
 71
     3
 72
    13
 73
     9
 74
     7
 42
0.000000001
 43
0.0000000001
 44
0.00000001
 40
0.0
 40
0.0
 40
0.0
 40
0.0
 40
0.0051497251256643
 40
0.0105976309049804
 40
0.0298804433641539
 40
0.0550106525217203
 40
0.0844076831866684
 40
0.1149607396527717
 40
0.1149607396527717
 40
0.1149607396527717
 40
0.1149607396527717
 10
-37.81633942843169
 20
279.0974833093959
 30
0.0
 10
-37.81647362277577
 20
279.0992041523783
 30
0.0
 10
-37.81674979169395
 20
279.1027454768395
 30
0.0
 10
-37.82069615199635
 20
279.1120581870672
 30
0.0
 10
-37.83365412505287
 20
279.1236417943335
 30
0.0
 10
-37.85669229139408
 20
279.1327460500434
 30
0.0
 10
-37.88493808146272
 20
279.1376163414546
 30
0.0
 10
-37.90492480875807
 20
279.1361194395408
 30
0.0
 10
-37.91511087623738
 20
279.1353565544991
 30
0.0
 11
-37.81633942843169
 21
279.0974833093959
 31
0.0
 11
-37.81700730438314
 21
279.102589550912
 31
0.0
 11
-37.81902234762288
 21
279.1076511012724
 31
0.0
 11
-37.83257190006817
 21
279.121371028895
 31
0.0
 11
-37.85559054743732
 21
279.1314541467751
 31
0.0
 11
-37.88457447890907
 21
279.1363650665446
 31
0.0
 11
-37.91511087623738
 21
279.1353565544991
 31
0.0
  0
SPLINE
  5
393
330
1F
100
AcDbEntity
  8
0
  6
Continuous
 62
     7
100
AcDbSpline
210
0.0
220
0.0
230
1.0
 70
     8
 71
     3
 72
    19
 73
    15
 74
    13
 42
0.000000001
 43
0.0000000001
 44
0.00000001
 40
0.0
 40
0.0
 40
0.0
 40
0.0
 40
0.0093415648281977
 40
0.0232182040138265
 40
0.0359250364926558
 40
0.0491501801327422
 40
0.0684368307647197
 40
0.0872836066911365
 40
0.1047735838443981
 40
0.1202388430672385
 40
0.1309104144897673
 40
0.1378093865896712
 40
0.1451108896340765
 40
0.1519281382450372
 40
0.1519281382450372
 40
0.1519281382450372
 40
0.1519281382450372
 10
-37.85631907570419
 20
279.2446365936662
 30
0.0
 10
-37.85348392201954
 20
279.2433425494485
 30
0.0
 10
-37.84643722113778
 20
279.2401262472675
 30
0.0
 10
-37.83487759617001
 20
279.2368144451903
 30
0.0
 10
-37.82182369354158
 20
279.2343764749661
 30
0.0
 10
-37.80679458618437
 20
279.2329793197098
 30
0.0
 10
-37.78963268169561
 20
279.233160694354
 30
0.0
 10
-37.7712074977666
 20
279.2356407186899
 30
0.0
 10
-37.75450234621594
 20
279.2402531721842
 30
0.0
 10
-37.74122812051099
 20
279.2463850340671
 30
0.0
 10
-37.73225364105021
 20
279.2529341840659
 30
0.0
 10
-37.72671931690934
 20
279.2591301312418
 30
0.0
 10
-37.72315980446573
 20
279.2653614808728
 30
0.0
 10
-37.72266474589274
 20
279.2700858606089
 30
0.0
 10
-37.72242571032766
 20
279.2723670318283
 30
0.0
 11
-37.85631907570419
 21
279.2446365936662
 31
0.0
 11
-37.84774494760823
 21
279.2409286289017
 31
0.0
 11
-37.83445667811853
 21
279.2369307566938
 31
0.0
 11
-37.8219659648537
 21
279.2345971592621
 31
0.0
 11
-37.80879958412911
 21
279.2333518308949
 31
0.0
 11
-37.78951408666865
 21
279.2335627194891
 31
0.0
 11
-37.7708437790578
 21
279.2361357654534
 31
0.0
 11
-37.7540184823976
 21
279.2409116086129
 31
0.0
 11
-37.74006796144337
 21
279.2475867256047
 31
0.0
 11
-37.73154733557145
 21
279.2540117821267
 31
0.0
 11
-37.72698705147585
 21
279.2591886157672
 31
0.0
 11
-37.72358488039403
 21
279.2656490458386
 31
0.0
 11
-37.72242571032766
 21
279.2723670318283
 31
0.0
  0
SPLINE
  5
394
330
1F
100
AcDbEntity
  8
0
  6
Continuous
 62
     7
100
AcDbSpline
210
0.0
220
0.0
230
1.0
 70
     8
 71
     3
 72
     9
 73
     5
 74
     3
 42
0.000000001
 43
0.0000000001
 44
0.00000001
 40
0.0
 40
0.0
 40
0.0
 40
0.0
 40
0.0056139277948375
 40
0.0116607348251484
 40
0.0116607348251484
 40
0.0116607348251484
 40
0.0116607348251484
 10
-37.73546174382264
 20
279.2507163428144
 30
0.0
 10
-37.73698847110447
 20
279.2518024404004
 30
0.0
 10
-37.740159659566
 20
279.2540583657054
 30
0.0
 10
-37.74360921928317
 20
279.2558610508219
 30
0.0
 10
-37.74539803305308
 20
279.2567958448026
 30
0.0
 11
-37.73546174382264
 21
279.2507163428144
 31
0.0
 11
-37.74010645266634
 21
279.2538695745162
 31
0.0
 11
-37.74539803305308
 21
279.2567958448026
 31
0.0
  0
SPLINE
  5
395
330
1F
100
AcDbEntity
  8
0
  6
Continuous
 62
     7
100
AcDbSpline
210
0.0
220
0.0
230
1.0
 70
     8
 71
     3
 72
    11
 73
     7
 74
     5
 42
0.000000001
 43
0.0000000001
 44
0.00000001
 40
0.0
 40
0.0
 40
0.0
 40
0.0
 40
0.0135071934009993
 40
0.0290830722742433
 40
0.0584801007507669
 40
0.0890331499331103
 40
0.0890331499331103
 40
0.0890331499331103
 40
0.0890331499331103
 10
-37.82937574053531
 20
279.0758310245413
 30
0.0
 10
-37.83317159012245
 20
279.0782801195472
 30
0.0
 10
-37.84134464788195
 20
279.0835533859832
 30
0.0
 10
-37.85990001911275
 20
279.0899360446545
 30
0.0
 10
-37.88492646187589
 20
279.0943331403989
 30
0.0
 10
-37.90492088687004
 20
279.0928242732262
 30
0.0
 10
-37.91511087623738
 20
279.0920552843099
 30
0.0
 11
-37.82937574053531
 21
279.0758310245413
 31
0.0
 11
-37.84099081755421
 21
279.0827255378934
 31
0.0
 11
-37.85559054743733
 21
279.0881528765859
 31
0.0
 11
-37.88457447890907
 21
279.0930637963555
 31
0.0
 11
-37.91511087623738
 21
279.0920552843099
 31
0.0
  0
SPLINE
  5
396
330
1F
100
AcDbEntity
  8
0
  6
Continuous
 62
     7
100
AcDbSpline
210
0.0
220
0.0
230
1.0
 70
     8
 71
     3
 72
    11
 73
     7
 74
     5
 42
0.000000001
 43
0.0000000001
 44
0.00000001
 40
0.0
 40
0.0
 40
0.0
 40
0.0
 40
0.0282638932352224
 40
0.0514834270558447
 40
0.0637969398126155
 40
0.074237331328048
 40
0.074237331328048
 40
0.074237331328048
 40
0.074237331328048
 10
-37.87443367718512
 20
279.0596066901945
 30
0.0
 10
-37.86512295810506
 20
279.0613608994655
 30
0.0
 10
-37.84816324085479
 20
279.0645562434005
 30
0.0
 10
-37.82917105270273
 20
279.0747334072529
 30
0.0
 10
-37.81822111706404
 20
279.0863629575164
 30
0.0
 10
-37.81693125957263
 20
279.0939856941765
 30
0.0
 10
-37.81633942843169
 20
279.0974833093959
 30
0.0
 11
-37.87443367718512
 21
279.0596066901945
 31
0.0
 11
-37.84699377073228
 21
279.0663815472464
 31
0.0
 11
-37.82682743229375
 21
279.0778909192207
 31
0.0
 11
-37.81898436032931
 21
279.0873834966923
 31
0.0
 11
-37.81633942843169
 21
279.0974833093959
 31
0.0
  0
SPLINE
  5
397
330
1F
100
AcDbEntity
  8
0
  6
Continuous
 62
     7
100
AcDbSpline
210
0.0
220
0.0
230
1.0
 70
     8
 71
     3
 72
     9
 73
     5
 74
     3
 42
0.000000001
 43
0.0000000001
 44
0.00000001
 40
0.0
 40
0.0
 40
0.0
 40
0.0
 40
0.0161514216973421
 40
0.0373864905638986
 40
0.0373864905638986
 40
0.0373864905638986
 40
0.0373864905638986
 10
-39.45717710509851
 20
279.1739411889553
 30
0.0
 10
-39.4556881387377
 20
279.1685549275423
 30
0.0
 10
-39.45224153798054
 20
279.1560870920664
 30
0.0
 10
-39.44073842023921
 20
279.1497885775586
 30
0.0
 10
-39.43420478237309
 20
279.1462111057918
 30
0.0
 11
-39.45717710509851
 21
279.1739411889553
 31
0.0
 11
-39.45120657456242
 21
279.1589338149133
 31
0.0
 11
-39.43420478237309
 21
279.1462111057918
 31
0.0
  0
SPLINE
  5
398
330
1F
100
AcDbEntity
  8
0
  6
Continuous
 62
     7
100
AcDbSpline
210
0.0
220
0.0
230
1.0
 70
     8
 71
     3
 72
     9
 73
     5
 74
     3
 42
0.000000001
 43
0.0000000001
 44
0.00000001
 40
0.0
 40
0.0
 40
0.0
 40
0.0
 40
0.0161514216972893
 40
0.0373864905637891
 40
0.0373864905637891
 40
0.0373864905637891
 40
0.0373864905637891
 10
-39.36326337700584
 20
279.3488264102111
 30
0.0
 10
-39.36177441064504
 20
279.3434401487982
 30
0.0
 10
-39.35832780988788
 20
279.330972313322
 30
0.0
 10
-39.34682469214653
 20
279.3246737988144
 30
0.0
 10
-39.34029105428041
 20
279.3210963270477
 30
0.0
 11
-39.36326337700584
 21
279.3488264102111
 31
0.0
 11
-39.35729284646975
 21
279.3338190361691
 31
0.0
 11
-39.34029105428041
 21
279.3210963270477
 31
0.0
  0
SPLINE
  5
399
330
1F
100
AcDbEntity
  8
0
  6
Continuous
 62
     7
100
AcDbSpline
210
0.0
220
0.0
230
1.0
 70
     8
 71
     3
 72
    21
 73
    17
 74
    15
 42
0.000000001
 43
0.0000000001
 44
0.00000001
 40
0.0
 40
0.0
 40
0.0
 40
0.0
 40
0.0128602855052535
 40
0.0232173910793264
 40
0.0379652471038214
 40
0.0491486017080747
 40
0.0587049837401356
 40
0.0685884310701899
 40
0.0780787291357831
 40
0.087301295171403
 40
0.104791272298859
 40
0.1202565315173839
 40
0.1282500939451886
 40
0.1378238535450954
 40
0.1441303687618846
 40
0.1519369450437055
 40
0.1519369450437055
 40
0.1519369450437055
 40
0.1519369450437055
 10
-39.32328373972203
 20
279.2016716271174
 30
0.0
 10
-39.32720888154735
 20
279.2034113971679
 30
0.0
 10
-39.33429516204095
 20
279.2065522936077
 30
0.0
 10
-39.34653533403348
 20
279.2098870164916
 30
0.0
 10
-39.35845916144586
 20
279.2120223307264
 30
0.0
 10
-39.37025620431636
 20
279.2130422977702
 30
0.0
 10
-39.38046760040596
 20
279.2132487507632
 30
0.0
 10
-39.39010909590282
 20
279.2128461560957
 30
0.0
 10
-39.39959567130474
 20
279.2118484327314
 30
0.0
 10
-39.41149684046412
 20
279.2098116505536
 30
0.0
 10
-39.42509725743319
 20
279.206056866897
 30
0.0
 10
-39.43756997625107
 20
279.2002939385452
 30
0.0
 10
-39.44662405256992
 20
279.1939573808514
 30
0.0
 10
-39.45220191132029
 20
279.1882017058658
 30
0.0
 10
-39.45630178456663
 20
279.1812828571081
 30
0.0
 10
-39.45686536706928
 20
279.1765558872397
 30
0.0
 10
-39.45717710509851
 20
279.1739411889553
 30
0.0
 11
-39.32328373972203
 21
279.2016716271174
 31
0.0
 11
-39.33518161211373
 21
279.2065529539406
 31
0.0
 11
-39.34514613730769
 21
279.2093774640898
 31
0.0
 11
-39.35966261669206
 21
279.2119795954698
 31
0.0
 11
-39.37080323129706
 21
279.2129563898886
 31
0.0
 11
-39.38035766205644
 21
279.2131494959234
 31
0.0
 11
-39.3902324109682
 21
279.2127349314935
 31
0.0
 11
-39.39967001420857
 21
279.21173623212
 31
0.0
 11
-39.40875903636837
 21
279.2101724553302
 31
0.0
 11
-39.42558433302933
 21
279.2053966121704
 31
0.0
 11
-39.43953485398279
 21
279.1987214951789
 31
0.0
 11
-39.44604376731897
 21
279.194081336047
 31
0.0
 11
-39.45261576395038
 21
279.1871196050163
 31
0.0
 11
-39.45566690542616
 21
279.1816003065541
 31
0.0
 11
-39.45717710509851
 21
279.1739411889553
 31
0.0
  0
SPLINE
  5
39A
330
1F
100
AcDbEntity
  8
0
  6
Continuous
 62
     7
100
AcDbSpline
210
0.0
220
0.0
230
1.0
 70
     8
 71
     3
 72
    17
 73
    13
 74
    11
 42
0.000000001
 43
0.0000000001
 44
0.00000001
 40
0.0
 40
0.0
 40
0.0
 40
0.0
 40
0.0111959782917739
 40
0.0232186316449053
 40
0.0379664852986012
 40
0.0491498396304615
 40
0.0684364903940312
 40
0.0872832667354681
 40
0.1047732444938298
 40
0.1202385072711913
 40
0.1231444053838379
 40
0.1258089444046466
 40
0.1258089444046466
 40
0.1258089444046466
 40
0.1258089444046466
 10
-39.32328373972203
 20
279.1583703569283
 30
0.0
 10
-39.32669208009136
 20
279.1599016218875
 30
0.0
 10
-39.33376042811062
 20
279.1630771992864
 30
0.0
 10
-39.34598887394668
 20
279.16648865327
 30
0.0
 10
-39.35845941151553
 20
279.1687209813911
 30
0.0
 10
-39.37348930766142
 20
279.1700203852414
 30
0.0
 10
-39.389970204302
 20
279.1698468374565
 30
0.0
 10
-39.40839633548923
 20
279.1673641904945
 30
0.0
 10
-39.42509683583547
 20
279.1627604781631
 30
0.0
 10
-39.43601973114838
 20
279.1576989679663
 30
0.0
 10
-39.44192558165113
 20
279.1539122294357
 30
0.0
 10
-39.44342422313368
 20
279.1528153107262
 30
0.0
 10
-39.44414107160358
 20
279.1522906077801
 30
0.0
 11
-39.32328373972203
 21
279.1583703569283
 31
0.0
 11
-39.33360409814208
 21
279.162710868675
 31
0.0
 11
-39.34514613730769
 21
279.1660761939007
 31
0.0
 11
-39.35966261669233
 21
279.1686783252807
 31
0.0
 11
-39.37080323129706
 21
279.1696551196995
 31
0.0
 11
-39.39008872875744
 21
279.1694442311053
 31
0.0
 11
-39.40875903636837
 21
279.166871185141
 31
0.0
 11
-39.42558433302865
 21
279.1620953419815
 31
0.0
 11
-39.43953485398279
 21
279.1554202249897
 31
0.0
 11
-39.44197558272877
 21
279.1538431672884
 31
0.0
 11
-39.44414107160358
 21
279.1522906077801
 31
0.0
  0
SPLINE
  5
39B
330
1F
100
AcDbEntity
  8
0
  6
Continuous
 62
     7
100
AcDbSpline
210
0.0
220
0.0
230
1.0
 70
     8
 71
     3
 72
     9
 73
     5
 74
     3
 42
0.000000001
 43
0.0000000001
 44
0.00000001
 40
0.0
 40
0.0
 40
0.0
 40
0.0
 40
0.0161515201985871
 40
0.0373867426102416
 40
0.0373867426102416
 40
0.0373867426102416
 40
0.0373867426102416
 10
-39.26934943681934
 20
279.523711998385
 30
0.0
 10
-39.26786045689328
 20
279.5183257058154
 30
0.0
 10
-39.26441382251966
 20
279.5058577902026
 30
0.0
 10
-39.25291062576615
 20
279.4995592369863
 30
0.0
 10
-39.24637693982655
 20
279.4959817414842
 30
0.0
 11
-39.26934943681934
 21
279.523711998385
 31
0.0
 11
-39.26337885904881
 21
279.5087045371245
 31
0.0
 11
-39.24637693982655
 21
279.4959817414842
 31
0.0
  0
SPLINE
  5
39C
330
1F
100
AcDbEntity
  8
0
  6
Continuous
 62
     7
100
AcDbSpline
210
0.0
220
0.0
230
1.0
 70
     8
 71
     3
 72
    11
 73
     7
 74
     5
 42
0.000000001
 43
0.0000000001
 44
0.00000001
 40
0.0
 40
0.0
 40
0.0
 40
0.0
 40
0.0317381699063887
 40
0.0602911734955471
 40
0.0828861659138885
 40
0.0998292741741168
 40
0.0998292741741168
 40
0.0998292741741168
 40
0.0998292741741168
 10
-39.18540098895923
 20
279.5628314217456
 30
0.0
 10
-39.19606295343851
 20
279.5626141026152
 30
0.0
 10
-39.21631687161381
 20
279.5622012675233
 30
0.0
 10
-39.24257163020249
 20
279.5542171791206
 30
0.0
 10
-39.26385174232529
 20
279.5423501231871
 30
0.0
 10
-39.26770025489828
 20
279.5293030240766
 30
0.0
 10
-39.26934943681934
 20
279.523711998385
 30
0.0
 11
-39.18540098895923
 21
279.5628314217456
 31
0.0
 11
-39.21706645272855
 21
279.5606845037594
 31
0.0
 11
-39.24439139609211
 21
279.552400692842
 31
0.0
 11
-39.26283950379647
 21
279.5393545636726
 31
0.0
 11
-39.26934943681934
 21
279.523711998385
 31
0.0
  0
SPLINE
  5
39D
330
1F
100
AcDbEntity
  8
0
  6
Continuous
 62
     7
100
AcDbSpline
210
0.0
220
0.0
230
1.0
 70
     8
 71
     3
 72
    23
 73
    19
 74
    17
 42
0.000000001
 43
0.0000000001
 44
0.00000001
 40
0.0
 40
0.0
 40
0.0
 40
0.0
 40
0.0128602855100035
 40
0.0232173910808812
 40
0.0339823992550071
 40
0.0491488920321867
 40
0.0578829853080304
 40
0.0685886241701177
 40
0.0770356207571444
 40
0.0873013438434904
 40
0.0961931673475118
 40
0.1046960531777682
 40
0.111828325140323
 40
0.1202866134571127
 40
0.1282801758842581
 40
0.1378539354836452
 40
0.1441605272376668
 40
0.1519670276825928
 40
0.1519670276825928
 40
0.1519670276825928
 40
0.1519670276825928
 10
-39.2293700116293
 20
279.3765568483733
 30
0.0
 10
-39.23329496681739
 20
279.3782968028714
 30
0.0
 10
-39.24038091037601
 20
279.381438032263
 30
0.0
 10
-39.25133917157151
 20
279.3844207647948
 30
0.0
 10
-39.2632182003225
 20
279.3867322113138
 30
0.0
 10
-39.27474231642617
 20
279.3878733230642
 30
0.0
 10
-39.28627844805092
 20
279.3881370958719
 30
0.0
 10
-39.29557534798469
 20
279.3877736885322
 30
0.0
 10
-39.30533545458971
 20
279.3867802379514
 30
0.0
 10
-39.31442003316865
 20
279.3852631587025
 30
0.0
 10
-39.32338793579611
 20
279.3830894663848
 30
0.0
 10
-39.33117636043733
 20
279.3805741419403
 30
0.0
 10
-39.33860765928196
 20
279.3775084736765
 30
0.0
 10
-39.34557694558475
 20
279.3738365271469
 30
0.0
 10
-39.35271028585518
 20
279.3688421178748
 30
0.0
 10
-39.35828820804153
 20
279.3630869956606
 30
0.0
 10
-39.36238806566681
 20
279.3561680298146
 30
0.0
 10
-39.36295164420415
 20
279.3514410747655
 30
0.0
 10
-39.36326337700584
 20
279.3488264102111
 30
0.0
 11
-39.2293700116293
 21
279.3765568483733
 31
0.0
 11
-39.24126788402135
 21
279.3814381751965
 31
0.0
 11
-39.25123240921496
 21
279.3842626853457
 31
0.0
 11
-39.26180010830721
 21
279.3863143039716
 31
0.0
 11
-39.27688950320433
 21
279.3878416111445
 31
0.0
 11
-39.28562131987267
 21
279.3880410169153
 31
0.0
 11
-39.29631868287552
 21
279.3876201527494
 31
0.0
 11
-39.30472185914765
 21
279.3867608633235
 31
0.0
 11
-39.31484530827569
 21
279.385057676586
 31
0.0
 11
-39.3234837127305
 21
279.3829499549522
 31
0.0
 11
-39.33156946284478
 21
279.3803194210495
 31
0.0
 11
-39.33815647250395
 21
279.3775843518727
 31
0.0
 11
-39.34562112589018
 21
279.3736067164347
 31
0.0
 11
-39.35213003922612
 21
279.3689665573031
 31
0.0
 11
-39.35870203585765
 21
279.3620048262721
 31
0.0
 11
-39.3617532058706
 21
279.3564854561425
 31
0.0
 11
-39.36326337700584
 21
279.3488264102111
 31
0.0
  0
SPLINE
  5
39E
330
1F
100
AcDbEntity
  8
0
  6
Continuous
 62
     7
100
AcDbSpline
210
0.0
220
0.0
230
1.0
 70
     8
 71
     3
 72
    19
 73
    15
 74
    13
 42
0.000000001
 43
0.0000000001
 44
0.00000001
 40
0.0
 40
0.0
 40
0.0
 40
0.0
 40
0.0128602810212903
 40
0.0232173905940503
 40
0.033982396973776
 40
0.0491488887353033
 40
0.0587052706980033
 40
0.0685887181093471
 40
0.0770357148417969
 40
0.0873014381682456
 40
0.1047914158868416
 40
0.1202566798103537
 40
0.1228686352422335
 40
0.1258271213120297
 40
0.1258271213120297
 40
0.1258271213120297
 40
0.1258271213120297
 10
-39.22937001162936
 20
279.3332555781841
 30
0.0
 10
-39.23329496698396
 20
279.3349955320464
 30
0.0
 10
-39.24038091596357
 20
279.338136753986
 30
0.0
 10
-39.25133915555614
 20
279.3411194957392
 30
0.0
 10
-39.26321826082472
 20
279.3434309450748
 30
0.0
 10
-39.27501538339801
 20
279.3445991307055
 30
0.0
 10
-39.28655357682337
 20
279.3448327696885
 30
0.0
 10
-39.29584790489469
 20
279.3444446062121
 30
0.0
 10
-39.3053358940258
 20
279.343479252314
 30
0.0
 10
-39.31724713025337
 20
279.3414876038968
 30
0.0
 10
-39.33118373723473
 20
279.3376456960951
 30
0.0
 10
-39.34201633850772
 20
279.3326251671862
 30
0.0
 10
-39.34793041148802
 20
279.3288523097197
 30
0.0
 10
-39.34943062275178
 20
279.3277573873495
 30
0.0
 10
-39.35022738590729
 20
279.3271758610528
 30
0.0
 11
-39.22937001162936
 21
279.3332555781841
 31
0.0
 11
-39.24126788402135
 21
279.3381369050073
 31
0.0
 11
-39.25123240921496
 21
279.3409614151565
 31
0.0
 11
-39.26180010830666
 21
279.3430130337824
 31
0.0
 11
-39.27688950320433
 21
279.3445403409553
 31
0.0
 11
-39.28644393396736
 21
279.34473344699
 31
0.0
 11
-39.29631868287552
 21
279.3443188825602
 31
0.0
 11
-39.30472185914785
 21
279.3434595931343
 31
0.0
 11
-39.31484530827569
 21
279.3417564063968
 31
0.0
 11
-39.33167060493668
 21
279.3369805632371
 31
0.0
 11
-39.34562112589018
 21
279.3303054462455
 31
0.0
 11
-39.34781850314171
 21
279.328893400351
 31
0.0
 11
-39.35022738590729
 21
279.3271758610528
 31
0.0
  0
SPLINE
  5
39F
330
1F
100
AcDbEntity
  8
0
  6
Continuous
 62
     7
100
AcDbSpline
210
0.0
220
0.0
230
1.0
 70
     8
 71
     3
 72
    13
 73
     9
 74
     7
 42
0.000000001
 43
0.0000000001
 44
0.00000001
 40
0.0
 40
0.0
 40
0.0
 40
0.0
 40
0.005149725125607
 40
0.0105976309049707
 40
0.0298804433641846
 40
0.0550106525217249
 40
0.0844076831866825
 40
0.1149607396527896
 40
0.1149607396527896
 40
0.1149607396527896
 40
0.1149607396527896
 10
-37.79437367393896
 20
279.8629477307072
 30
0.0
 10
-37.79450786828303
 20
279.8646685736896
 30
0.0
 10
-37.79478403720125
 20
279.8682098981507
 30
0.0
 10
-37.79873039750355
 20
279.8775226083785
 30
0.0
 10
-37.8116883705601
 20
279.8891062156449
 30
0.0
 10
-37.83472653690139
 20
279.8982104713546
 30
0.0
 10
-37.86297232697
 20
279.9030807627661
 30
0.0
 10
-37.88295905426533
 20
279.901583860852
 30
0.0
 10
-37.89314512174465
 20
279.9008209758103
 30
0.0
 11
-37.79437367393896
 21
279.8629477307072
 31
0.0
 11
-37.79504154989041
 21
279.8680539722233
 31
0.0
 11
-37.79705659313013
 21
279.8731155225838
 31
0.0
 11
-37.81060614557543
 21
279.8868354502064
 31
0.0
 11
-37.83362479294459
 21
279.8969185680864
 31
0.0
 11
-37.86260872441635
 21
279.9018294878559
 31
0.0
 11
-37.89314512174465
 21
279.9008209758103
 31
0.0
  0
SPLINE
  5
3A0
330
1F
100
AcDbEntity
  8
0
  6
Continuous
 62
     7
100
AcDbSpline
210
0.0
220
0.0
230
1.0
 70
     8
 71
     3
 72
    11
 73
     7
 74
     5
 42
0.000000001
 43
0.0000000001
 44
0.00000001
 40
0.0
 40
0.0
 40
0.0
 40
0.0
 40
0.0135071934009351
 40
0.0290830722741725
 40
0.0584801007506936
 40
0.0890331499330389
 40
0.0890331499330389
 40
0.0890331499330389
 40
0.0890331499330389
 10
-37.80740998604259
 20
279.8412954458527
 30
0.0
 10
-37.81120583562972
 20
279.8437445408585
 30
0.0
 10
-37.81937889338926
 20
279.8490178072946
 30
0.0
 10
-37.83793426462
 20
279.8554004659657
 30
0.0
 10
-37.86296070738318
 20
279.8597975617101
 30
0.0
 10
-37.88295513237731
 20
279.8582886945374
 30
0.0
 10
-37.89314512174465
 20
279.8575197056211
 30
0.0
 11
-37.80740998604259
 21
279.8412954458527
 31
0.0
 11
-37.81902506306149
 21
279.8481899592047
 31
0.0
 11
-37.8336247929446
 21
279.8536172978972
 31
0.0
 11
-37.86260872441635
 21
279.8585282176667
 31
0.0
 11
-37.89314512174465
 21
279.8575197056211
 31
0.0
  0
SPLINE
  5
3A1
330
1F
100
AcDbEntity
  8
0
  6
Continuous
 62
     7
100
AcDbSpline
210
0.0
220
0.0
230
1.0
 70
     8
 71
     3
 72
    11
 73
     7
 74
     5
 42
0.000000001
 43
0.0000000001
 44
0.00000001
 40
0.0
 40
0.0
 40
0.0
 40
0.0
 40
0.028263898521994
 40
0.0514834322640856
 40
0.0637969450209048
 40
0.0742373365363372
 40
0.0742373365363372
 40
0.0742373365363372
 40
0.0742373365363372
 10
-37.85246793421246
 20
279.8250711329584
 30
0.0
 10
-37.8431572114828
 20
279.8268253342804
 30
0.0
 10
-37.82619748904125
 20
279.8300206634613
 30
0.0
 10
-37.80720529805165
 20
279.8401978286356
 30
0.0
 10
-37.79625536259226
 20
279.85182737882
 30
0.0
 10
-37.79496550508649
 20
279.8594501154852
 30
0.0
 10
-37.79437367393896
 20
279.8629477307072
 30
0.0
 11
-37.85246793421246
 21
279.8250711329584
 31
0.0
 11
-37.82502801767957
 21
279.8318459712393
 31
0.0
 11
-37.80486167780102
 21
279.843355340532
 31
0.0
 11
-37.79701860583658
 21
279.8528479180036
 31
0.0
 11
-37.79437367393896
 21
279.8629477307072
 31
0.0
  0
SPLINE
  5
3A2
330
1F
100
AcDbEntity
  8
0
  6
Continuous
 62
     7
100
AcDbSpline
210
0.0
220
0.0
230
1.0
 70
     8
 71
     3
 72
    13
 73
     9
 74
     7
 42
0.000000001
 43
0.0000000001
 44
0.00000001
 40
0.0
 40
0.0
 40
0.0
 40
0.0
 40
0.0161514179087387
 40
0.0373864831868378
 40
0.0642144345566389
 40
0.0943773694169586
 40
0.1245403383211939
 40
0.1513683885075029
 40
0.1513683885075029
 40
0.1513683885075029
 40
0.1513683885075029
 10
-37.64100753701175
 20
279.7862631584258
 30
0.0
 10
-37.64250078749882
 20
279.7916070666253
 30
0.0
 10
-37.64595730220064
 20
279.8039768661968
 30
0.0
 10
-37.66561361811453
 20
279.8157959992694
 30
0.0
 10
-37.69021125941779
 20
279.8237460005738
 30
0.0
 10
-37.71942950239737
 20
279.8263032426885
 30
0.0
 10
-37.74870962956571
 20
279.8240996347362
 30
0.0
 10
-37.76651766669703
 20
279.8172279221
 30
0.0
 10
-37.77490065152929
 20
279.8139931161597
 30
0.0
 11
-37.64100753701175
 21
279.7862631584258
 31
0.0
 11
-37.64697806754783
 21
279.8012705324679
 31
0.0
 11
-37.66397985973715
 21
279.8139932415893
 31
0.0
 11
-37.68942535847047
 21
279.822494154354
 31
0.0
 11
-37.71944020367863
 21
279.8254794029518
 31
0.0
 11
-37.7494550758929
 21
279.8224940864722
 31
0.0
 11
-37.77490065152929
 21
279.8139931161597
 31
0.0
  0
SPLINE
  5
3A3
330
1F
100
AcDbEntity
  8
0
  6
Continuous
 62
     7
100
AcDbSpline
210
0.0
220
0.0
230
1.0
 70
     8
 71
     3
 72
    11
 73
     7
 74
     5
 42
0.000000001
 43
0.0000000001
 44
0.00000001
 40
0.0
 40
0.0
 40
0.0
 40
0.0
 40
0.0238521323168049
 40
0.0444340929619755
 40
0.0609193493178836
 40
0.0741889717308207
 40
0.0741889717308207
 40
0.0741889717308207
 40
0.0741889717308207
 10
-38.41780078551219
 20
279.8303856797409
 30
0.0
 10
-38.42567364023072
 20
279.8289668429738
 30
0.0
 10
-38.44033996416931
 20
279.826323687059
 30
0.0
 10
-38.45874778365254
 20
279.8178494997527
 30
0.0
 10
-38.47269655821749
 20
279.8068688548298
 30
0.0
 10
-38.47490848394708
 20
279.7969391726963
 30
0.0
 10
-38.47589491812042
 20
279.7925108836326
 30
0.0
 11
-38.41780078551219
 21
279.8303856797409
 31
0.0
 11
-38.44106208789895
 21
279.8251097301846
 31
0.0
 11
-38.45969929368413
 21
279.8163763598864
 31
0.0
 11
-38.47173565895581
 21
279.8051118184194
 31
0.0
 11
-38.47589491812042
 21
279.7925108836326
 31
0.0
  0
SPLINE
  5
3A4
330
1F
100
AcDbEntity
  8
0
  6
Continuous
 62
     7
100
AcDbSpline
210
0.0
220
0.0
230
1.0
 70
     8
 71
     3
 72
    33
 73
    29
 74
    27
 42
0.000000001
 43
0.0000000001
 44
0.00000001
 40
0.0
 40
0.0
 40
0.0
 40
0.0
 40
0.0002405898500686
 40
0.0004821230867335
 40
0.0058038943434643
 40
0.0114665723520851
 40
0.0174709773567465
 40
0.0238085530120471
 40
0.0304642299985641
 40
0.0374185088022016
 40
0.0446489848327133
 40
0.0521314908540235
 40
0.0608555452606905
 40
0.0696214538888778
 40
0.0783751845203685
 40
0.0870616462817252
 40
0.0956259995195216
 40
0.1040150344571473
 40
0.1121787594439846
 40
0.1182891533274821
 40
0.1241143590745475
 40
0.1296480289926245
 40
0.1348863859280688
 40
0.1398293148642917
 40
0.1444818120228265
 40
0.1488558865891967
 40
0.1529729719932628
 40
0.1568667527716282
 40
0.1568667527716282
 40
0.1568667527716282
 40
0.1568667527716282
 10
-37.49776664015249
 20
279.6855517279224
 30
0.0
 10
-37.49782674898819
 20
279.6856048172862
 30
0.0
 10
-37.49794721394046
 20
279.6857111909952
 30
0.0
 10
-37.49940569118333
 20
279.686982262259
 30
0.0
 10
-37.50237731166133
 20
279.6892700029802
 30
0.0
 10
-37.50718493733194
 20
279.6922760390785
 30
0.0
 10
-37.5125297958509
 20
279.695019845359
 30
0.0
 10
-37.5183685363404
 20
279.697484899991
 30
0.0
 10
-37.52465840306673
 20
279.6996551415286
 30
0.0
 10
-37.53135614438517
 20
279.7015138390875
 30
0.0
 10
-37.53841840760622
 20
279.7030441709366
 30
0.0
 10
-37.54613557761306
 20
279.7042827459512
 30
0.0
 10
-37.55441997893173
 20
279.7051433035147
 30
0.0
 10
-37.56316302041153
 20
279.705549649427
 30
0.0
 10
-37.57190252439216
 20
279.7054677113213
 30
0.0
 10
-37.58055685669596
 20
279.7049029407546
 30
0.0
 10
-37.58904456486835
 20
279.7038607538434
 30
0.0
 10
-37.59728411011103
 20
279.7023465250757
 30
0.0
 10
-37.60461787332315
 20
279.7005099403666
 30
0.0
 10
-37.61100722000519
 20
279.698483049942
 30
0.0
 10
-37.61644952356762
 20
279.6964018506967
 30
0.0
 10
-37.62148585144768
 20
279.6941025744678
 30
0.0
 10
-37.62609342948029
 20
279.6916005186313
 30
0.0
 10
-37.63024780236525
 20
279.6889097732
 30
0.0
 10
-37.63393040525652
 20
279.6860471667583
 30
0.0
 10
-37.63710241074394
 20
279.6830179200871
 30
0.0
 10
-37.63979264839541
 20
279.6798638148322
 30
0.0
 10
-37.64115964034511
 20
279.6775652061294
 30
0.0
 10
-37.6418240769988
 20
279.6764479341624
 30
0.0
 11
-37.49776664015249
 21
279.6855517279224
 31
0.0
 11
-37.49794714035393
 21
279.6857107899959
 31
0.0
 11
-37.49812920674285
 21
279.6858695047963
 31
0.0
 11
-37.50233420090007
 21
279.6891312980478
 31
0.0
 11
-37.5071263645232
 21
279.6921480976494
 31
0.0
 11
-37.51246150819617
 21
279.6949029317456
 31
0.0
 11
-37.51829544250297
 21
279.697378828481
 31
0.0
 11
-37.52458397802761
 21
279.6995588159999
 31
0.0
 11
-37.53128292535402
 21
279.701425922447
 31
0.0
 11
-37.53834809506623
 21
279.7029631759668
 31
0.0
 11
-37.54573529774817
 21
279.7041536047036
 31
0.0
 11
-37.55441221395834
 21
279.7050592727776
 31
0.0
 11
-37.5631685781865
 21
279.7054682040038
 31
0.0
 11
-37.57192192021134
 21
279.7053858056665
 31
0.0
 11
-37.58058976981157
 21
279.70481748505
 31
0.0
 11
-37.58908965676591
 21
279.7037686494386
 31
0.0
 11
-37.59733911085304
 21
279.7022447061165
 31
0.0
 11
-37.60525566185166
 21
279.7002510623681
 31
0.0
 11
-37.61107799825857
 21
279.6983970650296
 31
0.0
 11
-37.61651616629158
 21
279.6963091606484
 31
0.0
 11
-37.6215463260572
 21
279.6940028670982
 31
0.0
 11
-37.62614463766188
 21
279.6914937022522
 31
0.0
 11
-37.63028726121215
 21
279.6887971839842
 31
0.0
 11
-37.63395035681448
 21
279.6859288301678
 31
0.0
 11
-37.63711008457537
 21
279.6829041586763
 31
0.0
 11
-37.63974260460132
 21
279.6797386873833
 31
0.0
 11
-37.6418240769988
 21
279.6764479341624
 31
0.0
  0
SPLINE
  5
3A5
330
1F
100
AcDbEntity
  8
0
  6
Continuous
 62
     7
100
AcDbSpline
210
0.0
220
0.0
230
1.0
 70
     8
 71
     3
 72
     9
 73
     5
 74
     3
 42
0.000000001
 43
0.0000000001
 44
0.00000001
 40
0.0
 40
0.0
 40
0.0
 40
0.0
 40
0.0056139092229919
 40
0.011660694508153
 40
0.011660694508153
 40
0.011660694508153
 40
0.011660694508153
 10
-38.43500266105812
 20
279.1568026390476
 30
0.0
 10
-38.43652938396121
 20
279.1578887320629
 30
0.0
 10
-38.43970056285409
 20
279.1601446475375
 30
0.0
 10
-38.44315011070692
 20
279.1619473262035
 30
0.0
 10
-38.44493891807647
 20
279.1628821167097
 30
0.0
 11
-38.43500266105812
 21
279.1568026390476
 31
0.0
 11
-38.43964735625278
 21
279.1599558577896
 31
0.0
 11
-38.44493891807647
 21
279.1628821167097
 31
0.0
  0
SPLINE
  5
3A6
330
1F
100
AcDbEntity
  8
0
  6
Continuous
 62
     7
100
AcDbSpline
210
0.0
220
0.0
230
1.0
 70
     8
 71
     3
 72
    13
 73
     9
 74
     7
 42
0.000000001
 43
0.0000000001
 44
0.00000001
 40
0.0
 40
0.0
 40
0.0
 40
0.0
 40
0.1109132967656925
 40
0.2340628223879174
 40
0.3637524072083989
 40
0.4934419920289086
 40
0.6165915176511405
 40
0.7275048144168463
 40
0.7275048144168463
 40
0.7275048144168463
 40
0.7275048144168463
 10
-49.59749840503403
 20
279.6451487683323
 30
0.0
 10
-49.63163211072575
 20
279.6307117654721
 30
0.0
 10
-49.70366524224189
 20
279.6002450480806
 30
0.0
 10
-49.82358588349656
 20
279.5776843678128
 30
0.0
 10
-49.95105179562728
 20
279.5689716461997
 30
0.0
 10
-50.07851770775802
 20
279.5776843678129
 30
0.0
 10
-50.19843834901272
 20
279.6002450480805
 30
0.0
 10
-50.27047148052886
 20
279.6307117654721
 30
0.0
 10
-50.30460518622058
 20
279.6451487683323
 30
0.0
 11
-49.59749840503403
 21
279.6451487683323
 31
0.0
 11
-49.70105186227874
 21
279.6054191704047
 31
0.0
 11
-49.82164227307604
 21
279.5804440070567
 31
0.0
 11
-49.95105179562728
 21
279.5719255302805
 31
0.0
 11
-50.08046131817855
 21
279.5804440070567
 31
0.0
 11
-50.20105172897586
 21
279.6054191704047
 31
0.0
 11
-50.30460518622058
 21
279.6451487683323
 31
0.0
  0
SPLINE
  5
3A7
330
1F
100
AcDbEntity
  8
0
  6
Continuous
 62
     7
100
AcDbSpline
210
0.0
220
0.0
230
1.0
 70
     8
 71
     3
 72
    11
 73
     7
 74
     5
 42
0.000000001
 43
0.0000000001
 44
0.00000001
 40
0.0
 40
0.0
 40
0.0
 40
0.0
 40
0.0728130117543273
 40
0.1360823929108324
 40
0.1909368628670493
 40
0.2406466797160148
 40
0.2406466797160148
 40
0.2406466797160148
 40
0.2406466797160148
 10
-45.92054314286398
 20
279.7515755918485
 30
0.0
 10
-45.8992061237945
 20
279.7633462858021
 30
0.0
 10
-45.85932874470242
 20
279.7853448955645
 30
0.0
 10
-45.81234381399303
 20
279.8288164326631
 30
0.0
 10
-45.78037297522204
 20
279.8766811804729
 30
0.0
 10
-45.77611890822624
 20
279.9117029510629
 30
0.0
 10
-45.77409653345725
 20
279.9283522871451
 30
0.0
 11
-45.92054314286398
 21
279.7515755918485
 31
0.0
 11
-45.85836174702453
 21
279.789459735478
 31
0.0
 11
-45.8121567672016
 21
279.8326814290539
 31
0.0
 11
-45.78370391651526
 21
279.8795797089545
 31
0.0
 11
-45.77409653345725
 21
279.9283522871451
 31
0.0
  0
SPLINE
  5
3A8
330
1F
100
AcDbEntity
  8
0
  6
Continuous
 62
     7
100
AcDbSpline
210
0.0
220
0.0
230
1.0
 70
     8
 71
     3
 72
    11
 73
     7
 74
     5
 42
0.000000001
 43
0.0000000001
 44
0.00000001
 40
0.0
 40
0.0
 40
0.0
 40
0.0
 40
0.0728130117543569
 40
0.1360823929107843
 40
0.1909368628670049
 40
0.2406466797160345
 40
0.2406466797160345
 40
0.2406466797160345
 40
0.2406466797160345
 10
-45.92054314286398
 20
281.4836263994174
 30
0.0
 10
-45.89920612379451
 20
281.495397093371
 30
0.0
 10
-45.85932874470248
 20
281.5173957031335
 30
0.0
 10
-45.81234381399297
 20
281.5608672402319
 30
0.0
 10
-45.78037297522208
 20
281.6087319880418
 30
0.0
 10
-45.77611890822619
 20
281.6437537586318
 30
0.0
 10
-45.7740965334572
 20
281.660403094714
 30
0.0
 11
-45.92054314286398
 21
281.4836263994174
 31
0.0
 11
-45.85836174702453
 21
281.5215105430469
 31
0.0
 11
-45.8121567672016
 21
281.5647322366227
 31
0.0
 11
-45.78370391651525
 21
281.6116305165233
 31
0.0
 11
-45.7740965334572
 21
281.660403094714
 31
0.0
  0
SPLINE
  5
3A9
330
1F
100
AcDbEntity
  8
0
  6
Continuous
 62
     7
100
AcDbSpline
210
0.0
220
0.0
230
1.0
 70
     8
 71
     3
 72
    11
 73
     7
 74
     5
 42
0.000000001
 43
0.0000000001
 44
0.00000001
 40
0.0
 40
0.0
 40
0.0
 40
0.0
 40
0.0497098168490853
 40
0.1045642868052087
 40
0.1678336679616749
 40
0.2406466797160318
 40
0.2406466797160318
 40
0.2406466797160318
 40
0.2406466797160318
 10
-45.7740965334572
 20
281.660403094714
 30
0.0
 10
-45.77611890822619
 20
281.6770524307962
 30
0.0
 10
-45.78037297522201
 20
281.7120742013864
 30
0.0
 10
-45.81234381399304
 20
281.7599389491961
 30
0.0
 10
-45.85932874470247
 20
281.8034104862947
 30
0.0
 10
-45.89920612379449
 20
281.8254090960569
 30
0.0
 10
-45.92054314286398
 20
281.8371797900106
 30
0.0
 11
-45.7740965334572
 21
281.660403094714
 31
0.0
 11
-45.78370391651525
 21
281.7091756729048
 31
0.0
 11
-45.8121567672016
 21
281.7560739528053
 31
0.0
 11
-45.85836174702453
 21
281.7992956463811
 31
0.0
 11
-45.92054314286398
 21
281.8371797900106
 31
0.0
  0
SPLINE
  5
3AA
330
1F
100
AcDbEntity
  8
0
  6
Continuous
 62
     7
100
AcDbSpline
210
0.0
220
0.0
230
1.0
 70
     8
 71
     3
 72
    13
 73
     9
 74
     7
 42
0.000000001
 43
0.0000000001
 44
0.00000001
 40
0.0
 40
0.0
 40
0.0
 40
0.0
 40
0.1109132967656864
 40
0.2340628223879113
 40
0.3637524072084211
 40
0.4934419920289309
 40
0.6165915176511557
 40
0.7275048144168355
 40
0.7275048144168355
 40
0.7275048144168355
 40
0.7275048144168355
 10
-39.20302872159178
 20
283.1103328024846
 30
0.0
 10
-39.23716242728349
 20
283.0958957996243
 30
0.0
 10
-39.30919555879959
 20
283.0654290822327
 30
0.0
 10
-39.4291162000543
 20
283.0428684019651
 30
0.0
 10
-39.55658211218503
 20
283.0341556803519
 30
0.0
 10
-39.68404802431576
 20
283.0428684019652
 30
0.0
 10
-39.80396866557047
 20
283.0654290822328
 30
0.0
 10
-39.87600179708656
 20
283.0958957996244
 30
0.0
 10
-39.91013550277827
 20
283.1103328024846
 30
0.0
 11
-39.20302872159178
 21
283.1103328024846
 31
0.0
 11
-39.30658217883646
 21
283.070603204557
 31
0.0
 11
-39.42717258963376
 21
283.0456280412089
 31
0.0
 11
-39.55658211218503
 21
283.0371095644327
 31
0.0
 11
-39.6859916347363
 21
283.0456280412089
 31
0.0
 11
-39.8065820455336
 21
283.070603204557
 31
0.0
 11
-39.91013550277827
 21
283.1103328024846
 31
0.0
  0
SPLINE
  5
3AB
330
1F
100
AcDbEntity
  8
0
  6
Continuous
 62
     7
100
AcDbSpline
210
0.0
220
0.0
230
1.0
 70
     8
 71
     3
 72
    17
 73
    13
 74
    11
 42
0.000000001
 43
0.0000000001
 44
0.00000001
 40
0.0
 40
0.0
 40
0.0
 40
0.0
 40
1.551202201203572
 40
3.212812626380544
 40
4.937266215042156
 40
6.669538466887028
 40
8.353718845209272
 40
9.939491590468739
 40
11.38920841566135
 40
12.68633988689874
 40
13.84548358094507
 40
14.92004879943515
 40
14.92004879943515
 40
14.92004879943515
 40
14.92004879943515
 10
-27.0731004988086
 20
253.5367882097178
 30
0.0
 10
-27.05770420842278
 20
254.0548567948336
 30
0.0
 10
-27.02581576984311
 20
255.127867965649
 30
0.0
 10
-26.62828813351601
 20
256.7361382698167
 30
0.0
 10
-26.0063634207536
 20
258.3287026074518
 30
0.0
 10
-25.16024686932733
 20
259.826008783479
 30
0.0
 10
-24.14085842477918
 20
261.1530848573857
 30
0.0
 10
-22.99687978719249
 20
262.2424182664582
 30
0.0
 10
-21.78143096652135
 20
263.0437040357731
 30
0.0
 10
-20.55530132390281
 20
263.5019214693312
 30
0.0
 10
-19.35066370550663
 20
263.6238677662764
 30
0.0
 10
-18.64350417296757
 20
263.3657122907258
 30
0.0
 10
-18.30331256143253
 20
263.2415220221759
 30
0.0
 11
-27.0731004988086
 21
253.5367882097178
 31
0.0
 11
-26.97404315690224
 21
255.0848243505859
 31
0.0
 11
-26.59992254547078
 21
256.7037693671015
 31
0.0
 11
-25.97025624123216
 21
258.3091542193973
 31
0.0
 11
-25.11789953686983
 21
259.8172176142988
 31
0.0
 11
-24.0873228018649
 21
261.1492743472324
 31
0.0
 11
-22.93229825744161
 21
262.2358255428465
 31
0.0
 11
-21.71308906858677
 21
263.0201773935814
 31
0.0
 11
-20.49330839436223
 21
263.4614088054879
 31
0.0
 11
-19.33659920134039
 21
263.5364951464559
 31
0.0
 11
-18.30331256143253
 21
263.2415220221759
 31
0.0
  0
SPLINE
  5
3AC
330
1F
100
AcDbEntity
  8
0
  6
Continuous
 62
     7
100
AcDbSpline
210
0.0
220
0.0
230
1.0
 70
     8
 71
     3
 72
     9
 73
     5
 74
     3
 42
0.000000001
 43
0.0000000001
 44
0.00000001
 40
0.0
 40
0.0
 40
0.0
 40
0.0
 40
0.1679397004192217
 40
0.3445365581971824
 40
0.3445365581971824
 40
0.3445365581971824
 40
0.3445365581971824
 10
-15.63679563541061
 20
262.1375202059639
 30
0.0
 10
-15.68523998574591
 20
262.166867177401
 30
0.0
 10
-15.78462594162612
 20
262.2270739485305
 30
0.0
 10
-15.85109669349855
 20
262.3224863061366
 30
0.0
 10
-15.885167166137
 20
262.3713912032156
 30
0.0
 11
-15.63679563541061
 21
262.1375202059639
 31
0.0
 11
-15.77430821440108
 21
262.2339257766854
 31
0.0
 11
-15.885167166137
 21
262.3713912032156
 31
0.0
  0
SPLINE
  5
3AD
330
1F
100
AcDbEntity
  8
0
  6
Continuous
 62
     7
100
AcDbSpline
210
0.0
220
0.0
230
1.0
 70
     8
 71
     3
 72
    11
 73
     7
 74
     5
 42
0.000000001
 43
0.0000000001
 44
0.00000001
 40
0.0
 40
0.0
 40
0.0
 40
0.0
 40
0.1942571679911928
 40
0.3724239660201724
 40
0.5376958739985866
 40
0.6956961408302935
 40
0.6956961408302935
 40
0.6956961408302935
 40
0.6956961408302935
 10
-31.26672365703493
 20
255.2555869113827
 30
0.0
 10
-31.207346904115
 20
255.2819989567641
 30
0.0
 10
-31.09351158455984
 20
255.3326353175927
 30
0.0
 10
-30.91563825239682
 20
255.3639094682297
 30
0.0
 10
-30.74583199605527
 20
255.358220292942
 30
0.0
 10
-30.64512440536248
 20
255.3178974918014
 30
0.0
 10
-30.595903263785
 20
255.298189592206
 30
0.0
 11
-31.26672365703493
 21
255.2555869113827
 31
0.0
 11
-31.08604547763699
 21
255.326939856443
 31
0.0
 11
-30.91064870207225
 21
255.3582349009175
 31
0.0
 11
-30.74566038268386
 21
255.3485571443239
 31
0.0
 11
-30.595903263785
 21
255.298189592206
 31
0.0
  0
SPLINE
  5
3AE
330
1F
100
AcDbEntity
  8
0
  6
Continuous
 62
     7
100
AcDbSpline
210
0.0
220
0.0
230
1.0
 70
     8
 71
     3
 72
    11
 73
     7
 74
     5
 42
0.000000001
 43
0.0000000001
 44
0.00000001
 40
0.0
 40
0.0
 40
0.0
 40
0.0
 40
0.1942571679911031
 40
0.3724239660200807
 40
0.5376958739984717
 40
0.6956961408301932
 40
0.6956961408301932
 40
0.6956961408301932
 40
0.6956961408301932
 10
-14.96597524216074
 20
262.1801228867871
 30
0.0
 10
-15.02535199508065
 20
262.1537108414058
 30
0.0
 10
-15.13918731463582
 20
262.1030744805773
 30
0.0
 10
-15.3170606467988
 20
262.0718003299401
 30
0.0
 10
-15.48686690314032
 20
262.0774895052279
 30
0.0
 10
-15.58757449383313
 20
262.1178123063685
 30
0.0
 10
-15.63679563541061
 20
262.1375202059639
 30
0.0
 11
-14.96597524216074
 21
262.1801228867871
 31
0.0
 11
-15.14665342155863
 21
262.1087699417269
 31
0.0
 11
-15.32205019712336
 21
262.0774748972524
 31
0.0
 11
-15.48703851651173
 21
262.087152653846
 31
0.0
 11
-15.63679563541061
 21
262.1375202059639
 31
0.0
  0
SPLINE
  5
3AF
330
1F
100
AcDbEntity
  8
0
  6
Continuous
 62
     7
100
AcDbSpline
210
0.0
220
0.0
230
1.0
 70
     8
 71
     3
 72
    21
 73
    17
 74
    15
 42
0.000000001
 43
0.0000000001
 44
0.00000001
 40
0.0
 40
0.0
 40
0.0
 40
0.0
 40
0.9300432220467894
 40
1.916541731553981
 40
2.999472997539852
 40
4.196387824274908
 40
5.504950477840964
 40
6.907946848710489
 40
8.377962685369337
 40
9.881296703955952
 40
11.38135761156495
 40
12.84183189778378
 40
14.22987286577988
 40
15.51956713479275
 40
16.69597083588562
 40
17.75991710989318
 40
17.75991710989318
 40
17.75991710989318
 40
17.75991710989318
 10
-18.30331256143253
 20
263.2415220221759
 30
0.0
 10
-18.03858389037569
 20
263.0751930771687
 30
0.0
 10
-17.49305705399873
 20
262.7324387112538
 30
0.0
 10
-16.90440068495433
 20
261.8963427957714
 30
0.0
 10
-16.50354299591762
 20
260.87774064176
 30
0.0
 10
-16.31196640197538
 20
259.6882803643645
 30
0.0
 10
-16.32799428324506
 20
258.3805921648437
 30
0.0
 10
-16.55076622526567
 20
256.9999830843688
 30
0.0
 10
-16.97092474369355
 20
255.5990011649056
 30
0.0
 10
-17.5724633300596
 20
254.2306267991431
 30
0.0
 10
-18.33232471808602
 20
252.9469300747134
 30
0.0
 10
-19.22165842492239
 20
251.7977490046937
 30
0.0
 10
-20.2065769606297
 20
250.8238569308739
 30
0.0
 10
-21.25186472810607
 20
250.0722250988607
 30
0.0
 10
-22.31661231223572
 20
249.5389104454726
 30
0.0
 10
-23.05573861319774
 20
249.410595542613
 30
0.0
 10
-23.40675103824802
 20
249.3496585694878
 30
0.0
 11
-18.30331256143253
 21
263.2415220221759
 31
0.0
 11
-17.54901812643659
 21
262.6974445339817
 31
0.0
 11
-16.95790429771384
 21
261.9076573726622
 31
0.0
 11
-16.55319753698377
 21
260.903191065955
 31
0.0
 11
-16.35079827872522
 21
259.7235132962826
 31
0.0
 11
-16.35866007847325
 21
258.4149742604025
 31
0.0
 11
-16.57647297335041
 21
257.0289885614629
 31
0.0
 11
-16.99567987213885
 21
255.6200129995079
 31
0.0
 11
-17.59980865134943
 21
254.2434079044984
 31
0.0
 11
-18.36512323642931
 21
252.9532620560128
 31
0.0
 11
-19.26155275223414
 21
251.8002662788092
 31
0.0
 11
-20.25387597343748
 21
250.8297239799756
 31
0.0
 11
-21.30310293404472
 21
250.0797679202984
 31
0.0
 11
-22.36800842160252
 21
249.5798659711367
 31
0.0
 11
-23.40675103824802
 21
249.3496585694878
 31
0.0
  0
SPLINE
  5
3B0
330
1F
100
AcDbEntity
  8
0
  6
Continuous
 62
     7
100
AcDbSpline
210
0.0
220
0.0
230
1.0
 70
     8
 71
     3
 72
     9
 73
     5
 74
     3
 42
0.000000001
 43
0.0000000001
 44
0.00000001
 40
0.0
 40
0.0
 40
0.0
 40
0.0
 40
0.123524741489881
 40
0.2303320446271991
 40
0.2303320446271991
 40
0.2303320446271991
 40
0.2303320446271991
 10
-27.67718818825105
 20
241.8815074128125
 30
0.0
 10
-27.71651559394397
 20
241.8649751331848
 30
0.0
 10
-27.78984796444914
 20
241.8341480179885
 30
0.0
 10
-27.86564645748032
 20
241.8568017467461
 30
0.0
 10
-27.90079498600099
 20
241.8673065192047
 30
0.0
 11
-27.67718818825105
 21
241.8815074128125
 31
0.0
 11
-27.79587968153662
 21
241.8472920397177
 31
0.0
 11
-27.90079498600099
 21
241.8673065192047
 31
0.0
  0
SPLINE
  5
3B1
330
1F
100
AcDbEntity
  8
0
  6
Continuous
 62
     7
100
AcDbSpline
210
0.0
220
0.0
230
1.0
 70
     8
 71
     3
 72
     9
 73
     5
 74
     3
 42
0.000000001
 43
0.0000000001
 44
0.00000001
 40
0.0
 40
0.0
 40
0.0
 40
0.0
 40
0.1235247414898755
 40
0.2303320446272566
 40
0.2303320446272566
 40
0.2303320446272566
 40
0.2303320446272566
 10
-26.38474955148084
 20
252.0107049026372
 30
0.0
 10
-26.34542214578792
 20
252.0272371822649
 30
0.0
 10
-26.27208977528271
 20
252.0580642974612
 30
0.0
 10
-26.19629128225152
 20
252.0354105687035
 30
0.0
 10
-26.16114275373084
 20
252.0249057962449
 30
0.0
 11
-26.38474955148084
 21
252.0107049026372
 31
0.0
 11
-26.26605805819526
 21
252.044920275732
 31
0.0
 11
-26.16114275373084
 21
252.0249057962449
 31
0.0
  0
SPLINE
  5
3B2
330
1F
100
AcDbEntity
  8
0
  6
Continuous
 62
     7
100
AcDbSpline
210
0.0
220
0.0
230
1.0
 70
     8
 71
     3
 72
     9
 73
     5
 74
     3
 42
0.000000001
 43
0.0000000001
 44
0.00000001
 40
0.0
 40
0.0
 40
0.0
 40
0.0
 40
0.167939700419277
 40
0.3445365581972655
 40
0.3445365581972655
 40
0.3445365581972655
 40
0.3445365581972655
 10
-20.58654310371642
 20
264.6123939401168
 30
0.0
 10
-20.63498745405175
 20
264.6417409115541
 30
0.0
 10
-20.73437340993199
 20
264.7019476826832
 30
0.0
 10
-20.80084416180445
 20
264.7973600402896
 30
0.0
 10
-20.83491463444292
 20
264.8462649373685
 30
0.0
 11
-20.58654310371642
 21
264.6123939401168
 31
0.0
 11
-20.72405568270696
 21
264.7087995108383
 31
0.0
 11
-20.83491463444292
 21
264.8462649373685
 31
0.0
  0
SPLINE
  5
3B3
330
1F
100
AcDbEntity
  8
0
  6
Continuous
 62
     7
100
AcDbSpline
210
0.0
220
0.0
230
1.0
 70
     8
 71
     3
 72
     9
 73
     5
 74
     3
 42
0.000000001
 43
0.0000000001
 44
0.00000001
 40
0.0
 40
0.0
 40
0.0
 40
0.0
 40
0.280551109093758
 40
0.6000601077514811
 40
0.6000601077514811
 40
0.6000601077514811
 40
0.6000601077514811
 10
-19.65147933021765
 20
268.4998908965213
 30
0.0
 10
-19.69240142716971
 20
268.5850798709492
 30
0.0
 10
-19.77992812677729
 20
268.7672873379511
 30
0.0
 10
-19.78842390970033
 20
268.9696044783091
 30
0.0
 10
-19.79294757802106
 20
269.0773305998796
 30
0.0
 11
-19.65147933021765
 21
268.4998908965213
 31
0.0
 11
-19.75697007895527
 21
268.7598536390577
 31
0.0
 11
-19.79294757802106
 21
269.0773305998796
 31
0.0
  0
SPLINE
  5
3B4
330
1F
100
AcDbEntity
  8
0
  6
Continuous
 62
     7
100
AcDbSpline
210
0.0
220
0.0
230
1.0
 70
     8
 71
     3
 72
     9
 73
     5
 74
     3
 42
0.000000001
 43
0.0000000001
 44
0.00000001
 40
0.0
 40
0.0
 40
0.0
 40
0.0
 40
0.2805511090939201
 40
0.6000601077516408
 40
0.6000601077516408
 40
0.6000601077516408
 40
0.6000601077516408
 10
-24.60122679852347
 20
270.9747646306741
 30
0.0
 10
-24.64214889547553
 20
271.0599536051021
 30
0.0
 10
-24.72967559508309
 20
271.2421610721041
 30
0.0
 10
-24.73817137800614
 20
271.4444782124619
 30
0.0
 10
-24.74269504632687
 20
271.5522043340325
 30
0.0
 11
-24.60122679852347
 21
270.9747646306741
 31
0.0
 11
-24.7067175472611
 21
271.2347273732107
 31
0.0
 11
-24.74269504632687
 21
271.5522043340325
 31
0.0
  0
SPLINE
  5
3B5
330
1F
100
AcDbEntity
  8
0
  6
Continuous
 62
     7
100
AcDbSpline
210
0.0
220
0.0
230
1.0
 70
     8
 71
     3
 72
     9
 73
     5
 74
     3
 42
0.000000001
 43
0.0000000001
 44
0.00000001
 40
0.0
 40
0.0
 40
0.0
 40
0.0
 40
0.1235247414899148
 40
0.2303320446272992
 40
0.2303320446272992
 40
0.2303320446272992
 40
0.2303320446272992
 10
-13.60576324263874
 20
273.0793286512045
 30
0.0
 10
-13.56643583694581
 20
273.0958609308323
 30
0.0
 10
-13.49310346644058
 20
273.1266880460284
 30
0.0
 10
-13.41730497340938
 20
273.1040343172708
 30
0.0
 10
-13.38215644488869
 20
273.0935295448122
 30
0.0
 11
-13.60576324263874
 21
273.0793286512045
 31
0.0
 11
-13.48707174935312
 21
273.1135440242992
 31
0.0
 11
-13.38215644488869
 21
273.0935295448122
 31
0.0
  0
SPLINE
  5
3B6
330
1F
100
AcDbEntity
  8
0
  6
Continuous
 62
     7
100
AcDbSpline
210
0.0
220
0.0
230
1.0
 70
     8
 71
     3
 72
    11
 73
     7
 74
     5
 42
0.000000001
 43
0.0000000001
 44
0.00000001
 40
0.0
 40
0.0
 40
0.0
 40
0.0
 40
0.0683732341408183
 40
0.1418178632396158
 40
0.2236327599897857
 40
0.3148612369615199
 40
0.3148612369615199
 40
0.3148612369615199
 40
0.3148612369615199
 10
-13.38215644488869
 20
273.0935295448122
 30
0.0
 10
-13.36279933666162
 20
273.0810395170867
 30
0.0
 10
-13.32264936937864
 20
273.0551330368619
 30
0.0
 10
-13.28216282857169
 20
272.9902447225748
 30
0.0
 10
-13.25645381485485
 20
272.9114795965696
 30
0.0
 10
-13.25367489259215
 20
272.8536044344398
 30
0.0
 10
-13.25220985204541
 20
272.8230926446089
 30
0.0
 11
-13.38215644488869
 21
273.0935295448122
 31
0.0
 11
-13.32744973707902
 21
273.0525164293232
 31
0.0
 11
-13.28634428460379
 21
272.9916521879088
 31
0.0
 11
-13.26084904382551
 21
272.9139111404829
 31
0.0
 11
-13.25220985204541
 21
272.8230926446089
 31
0.0
  0
SPLINE
  5
3B7
330
1F
100
AcDbEntity
  8
0
  6
Continuous
 62
     7
100
AcDbSpline
210
0.0
220
0.0
230
1.0
 70
     8
 71
     3
 72
     9
 73
     5
 74
     3
 42
0.000000001
 43
0.0000000001
 44
0.00000001
 40
0.0
 40
0.0
 40
0.0
 40
0.0
 40
0.2805511090937647
 40
0.6000601077514285
 40
0.6000601077514285
 40
0.6000601077514285
 40
0.6000601077514285
 10
-21.63147210067214
 20
246.4609451674956
 30
0.0
 10
-21.59055000372008
 20
246.3757561930676
 30
0.0
 10
-21.50302330411249
 20
246.1935487260658
 30
0.0
 10
-21.49452752118946
 20
245.9912315857079
 30
0.0
 10
-21.49000385286874
 20
245.8835054641374
 30
0.0
 11
-21.63147210067214
 21
246.4609451674956
 31
0.0
 11
-21.5259813519345
 21
246.2009824249592
 31
0.0
 11
-21.49000385286874
 21
245.8835054641374
 31
0.0
  0
SPLINE
  5
3B8
330
1F
100
AcDbEntity
  8
0
  6
Continuous
 62
     7
100
AcDbSpline
210
0.0
220
0.0
230
1.0
 70
     8
 71
     3
 72
    15
 73
    11
 74
     9
 42
0.000000001
 43
0.0000000001
 44
0.00000001
 40
0.0
 40
0.0
 40
0.0
 40
0.0
 40
0.1873744694333298
 40
0.4008108230335263
 40
0.6381586787253467
 40
0.8922466518655785
 40
1.153078968874858
 40
1.409638548122795
 40
1.651548222403672
 40
1.870821175199837
 40
1.870821175199837
 40
1.870821175199837
 40
1.870821175199837
 10
-22.33261825233873
 20
245.851933669393
 30
0.0
 10
-22.30572163038345
 20
245.7950735124819
 30
0.0
 10
-22.24818735512076
 20
245.6734445229535
 30
0.0
 10
-22.23148255849609
 20
245.4574816667777
 30
0.0
 10
-22.25626155913325
 20
245.2232918157088
 30
0.0
 10
-22.32775285349886
 20
244.9814659082895
 30
0.0
 10
-22.43884976197207
 20
244.7482695351746
 30
0.0
 10
-22.58383354231257
 20
244.5400251665241
 30
0.0
 10
-22.75029619211612
 20
244.3647517805901
 30
0.0
 10
-22.88253762280051
 20
244.2852126023263
 30
0.0
 10
-22.94541286832308
 20
244.2473950727765
 30
0.0
 11
-22.33261825233873
 21
245.851933669393
 31
0.0
 11
-22.26220930385898
 21
245.6782910110061
 31
0.0
 11
-22.23830637129663
 21
245.4661973265522
 31
0.0
 11
-22.26253726540935
 21
245.2300895794022
 31
0.0
 11
-22.33325185092912
 21
244.9860401067753
 31
0.0
 11
-22.44563717831358
 21
244.7506616118114
 31
0.0
 11
-22.59204249242475
 21
244.5399762982296
 31
0.0
 11
-22.76250227145337
 21
244.3683262117369
 31
0.0
 11
-22.94541286832308
 21
244.2473950727765
 31
0.0
  0
SPLINE
  5
3B9
330
1F
100
AcDbEntity
  8
0
  6
Continuous
 62
     7
100
AcDbSpline
210
0.0
220
0.0
230
1.0
 70
     8
 71
     3
 72
    11
 73
     7
 74
     5
 42
0.000000001
 43
0.0000000001
 44
0.00000001
 40
0.0
 40
0.0
 40
0.0
 40
0.0
 40
0.2734929447817327
 40
0.5672714726690087
 40
0.8945310674976201
 40
1.259444972373493
 40
1.259444972373493
 40
1.259444972373493
 40
1.259444972373493
 10
-28.55052795021751
 20
245.2113494489256
 30
0.0
 10
-28.47309951498245
 20
245.1613893365226
 30
0.0
 10
-28.31249961335277
 20
245.0577634468763
 30
0.0
 10
-28.15055346179101
 20
244.798210164864
 30
0.0
 10
-28.04771738779523
 20
244.4831496616573
 30
0.0
 10
-28.0366017409829
 20
244.2516490064287
 30
0.0
 10
-28.03074157884433
 20
244.1296018481123
 30
0.0
 11
-28.55052795021751
 21
245.2113494489256
 31
0.0
 11
-28.33170111897859
 21
245.0472969869698
 31
0.0
 11
-28.1672793090778
 21
244.803840021312
 31
0.0
 11
-28.06529834596477
 21
244.4928758316086
 31
0.0
 11
-28.03074157884433
 21
244.1296018481123
 31
0.0
  0
SPLINE
  5
3BA
330
1F
100
AcDbEntity
  8
0
  6
Continuous
 62
     7
100
AcDbSpline
210
0.0
220
0.0
230
1.0
 70
     8
 71
     3
 72
    21
 73
    17
 74
    15
 42
0.000000001
 43
0.0000000001
 44
0.00000001
 40
0.0
 40
0.0
 40
0.0
 40
0.0
 40
0.9828997513832678
 40
2.031758524902125
 40
3.191460344385876
 40
4.479123693001661
 40
5.888146029842289
 40
7.394795411256247
 40
8.9640938573044
 40
10.55471099555525
 40
12.123281986925
 40
13.62854747348377
 40
15.03567564873496
 40
16.32117347227162
 40
17.47878300156376
 40
18.52607647214488
 40
18.52607647214488
 40
18.52607647214488
 40
18.52607647214488
 10
-32.8791338060764
 20
256.669061510141
 30
0.0
 10
-33.15811754948406
 20
256.8466554361613
 30
0.0
 10
-33.73480666561661
 20
257.213761017758
 30
0.0
 10
-34.33891955586343
 20
258.1214006124654
 30
0.0
 10
-34.7312945198398
 20
259.2254712849
 30
0.0
 10
-34.88914739297401
 20
260.5109700525488
 30
0.0
 10
-34.8158678440272
 20
261.9156276374354
 30
0.0
 10
-34.51456409811836
 20
263.3852008778704
 30
0.0
 10
-33.99885155511353
 20
264.8573834955841
 30
0.0
 10
-33.29055763821646
 20
266.2701505542081
 30
0.0
 10
-32.41974473988706
 20
267.5637611224436
 30
0.0
 10
-31.42323534848808
 20
268.6823632980693
 30
0.0
 10
-30.34186024109346
 20
269.5824869668322
 30
0.0
 10
-29.22018537923608
 20
270.213736399679
 30
0.0
 10
-28.09616735231015
 20
270.5864349673459
 30
0.0
 10
-27.35668091363923
 20
270.5593246355901
 30
0.0
 10
-27.00543674612382
 20
270.5464476570619
 30
0.0
 11
-32.8791338060764
 21
256.669061510141
 31
0.0
 11
-33.67112836717138
 21
257.2511581935127
 31
0.0
 11
-34.27955262019205
 21
258.1055144818858
 31
0.0
 11
-34.67775444959513
 21
259.1947085000514
 31
0.0
 11
-34.84829274973097
 21
260.4710288298713
 31
0.0
 11
-34.78369595775809
 21
261.8785696630889
 31
0.0
 11
-34.4867950828561
 21
263.355675693681
 31
0.0
 11
-33.97059389005496
 21
264.8376453077003
 31
0.0
 11
-33.25770490715641
 21
266.2595637906454
 31
0.0
 11
-32.3793537558097
 21
267.5591461084198
 31
0.0
 11
-31.37401587261894
 21
268.6794674525795
 31
0.0
 11
-30.28572753067037
 21
269.5714529762268
 31
0.0
 11
-29.1621595225422
 21
270.1960324906999
 31
0.0
 11
-28.0525275617026
 21
270.5258457007232
 31
0.0
 11
-27.00543674612382
 21
270.5464476570619
 31
0.0
  0
SPLINE
  5
3BB
330
1F
100
AcDbEntity
  8
0
  6
Continuous
 62
     7
100
AcDbSpline
210
0.0
220
0.0
230
1.0
 70
     8
 71
     3
 72
    11
 73
     7
 74
     5
 42
0.000000001
 43
0.0000000001
 44
0.00000001
 40
0.0
 40
0.0
 40
0.0
 40
0.0
 40
0.0728130117543213
 40
0.1360823929108264
 40
0.190936862867002
 40
0.2406466797160315
 40
0.2406466797160315
 40
0.2406466797160315
 40
0.2406466797160315
 10
-35.52607345942172
 20
286.6808612411385
 30
0.0
 10
-35.50473644035225
 20
286.6926319350922
 30
0.0
 10
-35.46485906126016
 20
286.7146305448545
 30
0.0
 10
-35.41787413055079
 20
286.758102081953
 30
0.0
 10
-35.38590329177978
 20
286.8059668297628
 30
0.0
 10
-35.38164922478392
 20
286.8409886003529
 30
0.0
 10
-35.37962685001494
 20
286.8576379364351
 30
0.0
 11
-35.52607345942172
 21
286.6808612411385
 31
0.0
 11
-35.46389206358228
 21
286.7187453847679
 31
0.0
 11
-35.41768708375935
 21
286.7619670783438
 31
0.0
 11
-35.38923423307299
 21
286.8088653582444
 31
0.0
 11
-35.37962685001494
 21
286.8576379364351
 31
0.0
  0
SPLINE
  5
3BC
330
1F
100
AcDbEntity
  8
0
  6
Continuous
 62
     7
100
AcDbSpline
210
0.0
220
0.0
230
1.0
 70
     8
 71
     3
 72
    11
 73
     7
 74
     5
 42
0.000000001
 43
0.0000000001
 44
0.00000001
 40
0.0
 40
0.0
 40
0.0
 40
0.0
 40
0.0497098168490867
 40
0.1045642868052587
 40
0.1678336679617637
 40
0.2406466797161146
 40
0.2406466797161146
 40
0.2406466797161146
 40
0.2406466797161146
 10
-35.37962685001494
 20
286.8576379364351
 30
0.0
 10
-35.38164922478392
 20
286.8742872725173
 30
0.0
 10
-35.38590329177978
 20
286.9093090431074
 30
0.0
 10
-35.41787413055079
 20
286.9571737909173
 30
0.0
 10
-35.46485906126018
 20
287.0006453280157
 30
0.0
 10
-35.50473644035223
 20
287.0226439377781
 30
0.0
 10
-35.52607345942172
 20
287.0344146317318
 30
0.0
 11
-35.37962685001494
 21
286.8576379364351
 31
0.0
 11
-35.389234233073
 21
286.9064105146259
 31
0.0
 11
-35.41768708375935
 21
286.9533087945264
 31
0.0
 11
-35.46389206358228
 21
286.9965304881023
 31
0.0
 11
-35.52607345942172
 21
287.0344146317318
 31
0.0
  0
SPLINE
  5
3BD
330
1F
100
AcDbEntity
  8
0
  6
Continuous
 62
     7
100
AcDbSpline
210
0.0
220
0.0
230
1.0
 70
     8
 71
     3
 72
    13
 73
     9
 74
     7
 42
0.000000001
 43
0.0000000001
 44
0.00000001
 40
0.0
 40
0.0
 40
0.0
 40
0.0
 40
0.1109132967656864
 40
0.2340628223878997
 40
0.3637524072084132
 40
0.4934419920289267
 40
0.6165915176511401
 40
0.7275048144168198
 40
0.7275048144168198
 40
0.7275048144168198
 40
0.7275048144168198
 10
-39.20302872159178
 20
284.8423836100535
 30
0.0
 10
-39.23716242728349
 20
284.8279466071932
 30
0.0
 10
-39.30919555879958
 20
284.7974798898017
 30
0.0
 10
-39.4291162000543
 20
284.7749192095341
 30
0.0
 10
-39.55658211218503
 20
284.7662064879207
 30
0.0
 10
-39.68404802431574
 20
284.7749192095341
 30
0.0
 10
-39.80396866557047
 20
284.7974798898017
 30
0.0
 10
-39.87600179708657
 20
284.8279466071932
 30
0.0
 10
-39.91013550277827
 20
284.8423836100535
 30
0.0
 11
-39.20302872159178
 21
284.8423836100535
 31
0.0
 11
-39.30658217883646
 21
284.8026540121259
 31
0.0
 11
-39.42717258963376
 21
284.7776788487779
 31
0.0
 11
-39.55658211218503
 21
284.7691603720016
 31
0.0
 11
-39.6859916347363
 21
284.7776788487779
 31
0.0
 11
-39.8065820455336
 21
284.8026540121259
 31
0.0
 11
-39.91013550277827
 21
284.8423836100535
 31
0.0
  0
SPLINE
  5
3BE
330
1F
100
AcDbEntity
  8
0
  6
Continuous
 62
     7
100
AcDbSpline
210
0.0
220
0.0
230
1.0
 70
     8
 71
     3
 72
    11
 73
     7
 74
     5
 42
0.000000001
 43
0.0000000001
 44
0.00000001
 40
0.0
 40
0.0
 40
0.0
 40
0.0
 40
0.0728130117543804
 40
0.1360823929108078
 40
0.1909368628670321
 40
0.2406466797161174
 40
0.2406466797161174
 40
0.2406466797161174
 40
0.2406466797161174
 10
-35.52607345942172
 20
284.9488104335696
 30
0.0
 10
-35.50473644035225
 20
284.9605811275232
 30
0.0
 10
-35.46485906126024
 20
284.9825797372858
 30
0.0
 10
-35.41787413055073
 20
285.0260512743841
 30
0.0
 10
-35.38590329177978
 20
285.0739160221941
 30
0.0
 10
-35.38164922478393
 20
285.108937792784
 30
0.0
 10
-35.37962685001494
 20
285.1255871288663
 30
0.0
 11
-35.52607345942172
 21
284.9488104335696
 31
0.0
 11
-35.46389206358228
 21
284.9866945771992
 31
0.0
 11
-35.41768708375935
 21
285.0299162707749
 31
0.0
 11
-35.38923423307299
 21
285.0768145506755
 31
0.0
 11
-35.37962685001494
 21
285.1255871288663
 31
0.0
  0
SPLINE
  5
3BF
330
1F
100
AcDbEntity
  8
0
  6
Continuous
 62
     7
100
AcDbSpline
210
0.0
220
0.0
230
1.0
 70
     8
 71
     3
 72
     9
 73
     5
 74
     3
 42
0.000000001
 43
0.0000000001
 44
0.00000001
 40
0.0
 40
0.0
 40
0.0
 40
0.0
 40
0.0559798992072153
 40
0.1148455175338954
 40
0.1148455175338954
 40
0.1148455175338954
 40
0.1148455175338954
 10
-26.16114275373084
 20
252.0249057962449
 30
0.0
 10
-26.14499463722141
 20
252.0151234725954
 30
0.0
 10
-26.1118659940255
 20
251.9950545389931
 30
0.0
 10
-26.08970906752159
 20
251.9632504292624
 30
0.0
 10
-26.0783522434887
 20
251.946948797161
 30
0.0
 11
-26.16114275373084
 21
252.0249057962449
 31
0.0
 11
-26.11530522740066
 21
251.9927706060043
 31
0.0
 11
-26.0783522434887
 21
251.946948797161
 31
0.0
  0
SPLINE
  5
3C0
330
1F
100
AcDbEntity
  8
0
  6
Continuous
 62
     7
100
AcDbSpline
210
0.0
220
0.0
230
1.0
 70
     8
 71
     3
 72
    13
 73
     9
 74
     7
 42
0.000000001
 43
0.0000000001
 44
0.00000001
 40
0.0
 40
0.0
 40
0.0
 40
0.0
 40
0.1187083540841556
 40
0.2458089611415318
 40
0.3762978903694559
 40
0.5046574411368024
 40
0.6256891772177623
 40
0.7353915217359107
 40
0.7353915217359107
 40
0.7353915217359107
 40
0.7353915217359107
 10
-30.15206192240399
 20
249.6940360152834
 30
0.0
 10
-30.14952335483801
 20
249.7336399858006
 30
0.0
 10
-30.14426673723833
 20
249.8156477833323
 30
0.0
 10
-30.10713186331949
 20
249.9364871314102
 30
0.0
 10
-30.05198854013972
 20
250.0532063954167
 30
0.0
 10
-29.97937211226723
 20
250.1573981348427
 30
0.0
 10
-29.89612890176562
 20
250.2451068578863
 30
0.0
 10
-29.82996575429673
 20
250.2849039303516
 30
0.0
 10
-29.79850853181065
 20
250.3038254124723
 30
0.0
 11
-30.15206192240399
 21
249.6940360152834
 31
0.0
 11
-30.14001479170926
 21
249.8121314847727
 31
0.0
 11
-30.1046947496586
 21
249.9342259526022
 31
0.0
 11
-30.04850846515926
 21
250.0519988801227
 31
0.0
 11
-29.97528522710733
 21
250.1574243629317
 31
0.0
 11
-29.89001485836066
 21
250.2433175876639
 31
0.0
 11
-29.79850853181065
 21
250.3038254124723
 31
0.0
  0
SPLINE
  5
3C1
330
1F
100
AcDbEntity
  8
0
  6
Continuous
 62
     7
100
AcDbSpline
210
0.0
220
0.0
230
1.0
 70
     8
 71
     3
 72
     9
 73
     5
 74
     3
 42
0.000000001
 43
0.0000000001
 44
0.00000001
 40
0.0
 40
0.0
 40
0.0
 40
0.0
 40
0.1679397004192957
 40
0.3445365581972599
 40
0.3445365581972599
 40
0.3445365581972599
 40
0.3445365581972599
 10
-25.64615579547913
 20
252.8233158580531
 30
0.0
 10
-25.59771144514382
 20
252.7939688866158
 30
0.0
 10
-25.49832548926366
 20
252.7337621154866
 30
0.0
 10
-25.43185473739115
 20
252.6383497578802
 30
0.0
 10
-25.39778426475269
 20
252.5894448608013
 30
0.0
 11
-25.64615579547913
 21
252.8233158580531
 31
0.0
 11
-25.50864321648865
 21
252.7269102873315
 31
0.0
 11
-25.39778426475269
 21
252.5894448608013
 31
0.0
  0
SPLINE
  5
3C2
330
1F
100
AcDbEntity
  8
0
  6
Continuous
 62
     7
100
AcDbSpline
210
0.0
220
0.0
230
1.0
 70
     8
 71
     3
 72
    11
 73
     7
 74
     5
 42
0.000000001
 43
0.0000000001
 44
0.00000001
 40
0.0
 40
0.0
 40
0.0
 40
0.0
 40
0.1942571679911823
 40
0.3724239660201499
 40
0.5376958739985696
 40
0.6956961408303236
 40
0.6956961408303236
 40
0.6956961408303236
 40
0.6956961408303236
 10
-26.31697618872911
 20
252.7807131772298
 30
0.0
 10
-26.25759943580919
 20
252.8071252226113
 30
0.0
 10
-26.14376411625402
 20
252.8577615834397
 30
0.0
 10
-25.96589078409099
 20
252.8890357340768
 30
0.0
 10
-25.79608452774945
 20
252.8833465587892
 30
0.0
 10
-25.69537693705662
 20
252.8430237576485
 30
0.0
 10
-25.64615579547913
 20
252.8233158580531
 30
0.0
 11
-26.31697618872911
 21
252.7807131772298
 31
0.0
 11
-26.13629800933117
 21
252.8520661222901
 31
0.0
 11
-25.96090123376644
 21
252.8833611667645
 31
0.0
 11
-25.79591291437804
 21
252.873683410171
 31
0.0
 11
-25.64615579547913
 21
252.8233158580531
 31
0.0
  0
SPLINE
  5
3C3
330
1F
100
AcDbEntity
  8
0
  6
Continuous
 62
     7
100
AcDbSpline
210
0.0
220
0.0
230
1.0
 70
     8
 71
     3
 72
    15
 73
    11
 74
     9
 42
0.000000001
 43
0.0000000001
 44
0.00000001
 40
0.0
 40
0.0
 40
0.0
 40
0.0
 40
0.1873744694333892
 40
0.4008108230335868
 40
0.6381586787253801
 40
0.8922466518656715
 40
1.153078968874942
 40
1.409638548122875
 40
1.651548222403711
 40
1.87082117519985
 40
1.87082117519985
 40
1.87082117519985
 40
1.87082117519985
 10
-18.95033317855101
 20
269.1089023946239
 30
0.0
 10
-18.97722980050629
 20
269.165762551535
 30
0.0
 10
-19.034764075769
 20
269.2873915410635
 30
0.0
 10
-19.05146887239369
 20
269.5033543972392
 30
0.0
 10
-19.02668987175649
 20
269.7375442483082
 30
0.0
 10
-18.95519857739088
 20
269.9793701557275
 30
0.0
 10
-18.84410166891769
 20
270.2125665288424
 30
0.0
 10
-18.69911788857721
 20
270.4208108974929
 30
0.0
 10
-18.53265523877364
 20
270.5960842834269
 30
0.0
 10
-18.40041380808927
 20
270.6756234616906
 30
0.0
 10
-18.33753856256672
 20
270.7134409912404
 30
0.0
 11
-18.95033317855101
 21
269.1089023946239
 31
0.0
 11
-19.02074212703078
 21
269.2825450530109
 31
0.0
 11
-19.04464505959314
 21
269.4946387374647
 31
0.0
 11
-19.02041416548041
 21
269.7307464846147
 31
0.0
 11
-18.94969957996062
 21
269.9747959572417
 31
0.0
 11
-18.83731425257618
 21
270.2101744522056
 31
0.0
 11
-18.69090893846501
 21
270.4208597657874
 31
0.0
 11
-18.5204491594364
 21
270.59250985228
 31
0.0
 11
-18.33753856256672
 21
270.7134409912404
 31
0.0
  0
SPLINE
  5
3C4
330
1F
100
AcDbEntity
  8
0
  6
Continuous
 62
     7
100
AcDbSpline
210
0.0
220
0.0
230
1.0
 70
     8
 71
     3
 72
     9
 73
     5
 74
     3
 42
0.000000001
 43
0.0000000001
 44
0.00000001
 40
0.0
 40
0.0
 40
0.0
 40
0.0
 40
0.0559798992072087
 40
0.1148455175339308
 40
0.1148455175339308
 40
0.1148455175339308
 40
0.1148455175339308
 10
-15.12180867715895
 20
262.9359302677719
 30
0.0
 10
-15.13795679366836
 20
262.9457125914213
 30
0.0
 10
-15.17108543686427
 20
262.9657815250238
 30
0.0
 10
-15.19324236336813
 20
262.9975856347544
 30
0.0
 10
-15.20459918740104
 20
263.0138872668559
 30
0.0
 11
-15.12180867715895
 21
262.9359302677719
 31
0.0
 11
-15.16764620348908
 21
262.9680654580125
 31
0.0
 11
-15.20459918740104
 21
263.0138872668559
 31
0.0
  0
SPLINE
  5
3C5
330
1F
100
AcDbEntity
  8
0
  6
Continuous
 62
     7
100
AcDbSpline
210
0.0
220
0.0
230
1.0
 70
     8
 71
     3
 72
     9
 73
     5
 74
     3
 42
0.000000001
 43
0.0000000001
 44
0.00000001
 40
0.0
 40
0.0
 40
0.0
 40
0.0
 40
0.1235247414898878
 40
0.2303320446272353
 40
0.2303320446272353
 40
0.2303320446272353
 40
0.2303320446272353
 10
-14.89820187940896
 20
262.9501311613798
 30
0.0
 10
-14.93752928510188
 20
262.9335988817521
 30
0.0
 10
-15.01086165560706
 20
262.9027717665557
 30
0.0
 10
-15.08666014863827
 20
262.9254254953133
 30
0.0
 10
-15.12180867715895
 20
262.9359302677719
 30
0.0
 11
-14.89820187940896
 21
262.9501311613798
 31
0.0
 11
-15.01689337269454
 21
262.915915788285
 31
0.0
 11
-15.12180867715895
 21
262.9359302677719
 31
0.0
  0
SPLINE
  5
3C6
330
1F
100
AcDbEntity
  8
0
  6
Continuous
 62
     7
100
AcDbSpline
210
0.0
220
0.0
230
1.0
 70
     8
 71
     3
 72
    13
 73
     9
 74
     7
 42
0.000000001
 43
0.0000000001
 44
0.00000001
 40
0.0
 40
0.0
 40
0.0
 40
0.0
 40
0.1187083540841833
 40
0.2458089611416072
 40
0.3762978903695199
 40
0.5046574411367954
 40
0.6256891772177591
 40
0.7353915217359588
 40
0.7353915217359588
 40
0.7353915217359588
 40
0.7353915217359588
 10
-11.13088950848581
 20
265.2668000487336
 30
0.0
 10
-11.13342807605179
 20
265.2271960782165
 30
0.0
 10
-11.13868469365147
 20
265.1451882806846
 30
0.0
 10
-11.17581956757027
 20
265.0243489326066
 30
0.0
 10
-11.23096289075
 20
264.9076296686002
 30
0.0
 10
-11.30357931862253
 20
264.8034379291744
 30
0.0
 10
-11.38682252912414
 20
264.7157292061307
 30
0.0
 10
-11.45298567659304
 20
264.6759321336652
 30
0.0
 10
-11.48444289907914
 20
264.6570106515447
 30
0.0
 11
-11.13088950848581
 21
265.2668000487336
 31
0.0
 11
-11.14293663918054
 21
265.1487045792442
 31
0.0
 11
-11.17825668123118
 21
265.0266101114147
 31
0.0
 11
-11.23444296573049
 21
264.9088371838942
 31
0.0
 11
-11.30766620378241
 21
264.8034117010852
 31
0.0
 11
-11.39293657252908
 21
264.7175184763531
 31
0.0
 11
-11.48444289907914
 21
264.6570106515447
 31
0.0
  0
SPLINE
  5
3C7
330
1F
100
AcDbEntity
  8
0
  6
Continuous
 62
     7
100
AcDbSpline
210
0.0
220
0.0
230
1.0
 70
     8
 71
     3
 72
    11
 73
     7
 74
     5
 42
0.000000001
 43
0.0000000001
 44
0.00000001
 40
0.0
 40
0.0
 40
0.0
 40
0.0
 40
0.0683732341409178
 40
0.1418178632397212
 40
0.2236327599898828
 40
0.3148612369616732
 40
0.3148612369616732
 40
0.3148612369616732
 40
0.3148612369616732
 10
-11.26083610132915
 20
271.4262096946711
 30
0.0
 10
-11.24147899310205
 20
271.4137196669457
 30
0.0
 10
-11.20132902581904
 20
271.3878131867207
 30
0.0
 10
-11.16084248501205
 20
271.3229248724336
 30
0.0
 10
-11.13513347129526
 20
271.2441597464284
 30
0.0
 10
-11.13235454903255
 20
271.1862845842986
 30
0.0
 10
-11.13088950848581
 20
271.1557727944677
 30
0.0
 11
-11.26083610132915
 21
271.4262096946711
 31
0.0
 11
-11.2061293935194
 21
271.3851965791821
 31
0.0
 11
-11.16502394104415
 21
271.3243323377677
 31
0.0
 11
-11.13952870026591
 21
271.2465912903417
 31
0.0
 11
-11.13088950848581
 21
271.1557727944677
 31
0.0
  0
SPLINE
  5
3C8
330
1F
100
AcDbEntity
  8
0
  6
Continuous
 62
     7
100
AcDbSpline
210
0.0
220
0.0
230
1.0
 70
     8
 71
     3
 72
     9
 73
     5
 74
     3
 42
0.000000001
 43
0.0000000001
 44
0.00000001
 40
0.0
 40
0.0
 40
0.0
 40
0.0
 40
0.123524741489965
 40
0.2303320446272692
 40
0.2303320446272692
 40
0.2303320446272692
 40
0.2303320446272692
 10
-11.48444289907914
 20
271.4120088010633
 30
0.0
 10
-11.4451154933862
 20
271.428541080691
 30
0.0
 10
-11.37178312288101
 20
271.4593681958875
 30
0.0
 10
-11.29598462984981
 20
271.4367144671297
 30
0.0
 10
-11.26083610132915
 20
271.4262096946711
 30
0.0
 11
-11.48444289907914
 21
271.4120088010633
 31
0.0
 11
-11.3657514057935
 21
271.4462241741581
 31
0.0
 11
-11.26083610132915
 21
271.4262096946711
 31
0.0
  0
SPLINE
  5
3C9
330
1F
100
AcDbEntity
  8
0
  6
Continuous
 62
     7
100
AcDbSpline
210
0.0
220
0.0
230
1.0
 70
     8
 71
     3
 72
    11
 73
     7
 74
     5
 42
0.000000001
 43
0.0000000001
 44
0.00000001
 40
0.0
 40
0.0
 40
0.0
 40
0.0
 40
0.259009557290154
 40
0.4965652887131915
 40
0.7169278336328158
 40
0.9275948567589988
 40
0.9275948567589988
 40
0.9275948567589988
 40
0.9275948567589988
 10
-11.8379962896723
 20
271.2352321057667
 30
0.0
 10
-11.91716529355595
 20
271.2000160452625
 30
0.0
 10
-12.06894571815372
 20
271.1325008928683
 30
0.0
 10
-12.30611016200633
 20
271.090802027425
 30
0.0
 10
-12.53251850510307
 20
271.0983875920411
 30
0.0
 10
-12.66679529168922
 20
271.1521513317898
 30
0.0
 10
-12.73242348067223
 20
271.1784285313357
 30
0.0
 11
-11.8379962896723
 21
271.2352321057667
 31
0.0
 11
-12.0789005288696
 21
271.1400948456865
 31
0.0
 11
-12.31276289628923
 21
271.0983681197205
 31
0.0
 11
-12.53274732214043
 21
271.1112717951785
 31
0.0
 11
-12.73242348067223
 21
271.1784285313357
 31
0.0
  0
SPLINE
  5
3CA
330
1F
100
AcDbEntity
  8
0
  6
Continuous
 62
     7
100
AcDbSpline
210
0.0
220
0.0
230
1.0
 70
     8
 71
     3
 72
     9
 73
     5
 74
     3
 42
0.000000001
 43
0.0000000001
 44
0.00000001
 40
0.0
 40
0.0
 40
0.0
 40
0.0
 40
0.0494098952014045
 40
0.0921328150617048
 40
0.0921328150617048
 40
0.0921328150617048
 40
0.0921328150617048
 10
-12.2269050193249
 20
272.0800082254817
 30
0.0
 10
-12.24263598115807
 20
272.0733953138172
 30
0.0
 10
-12.2719689301545
 20
272.0610644794465
 30
0.0
 10
-12.30228832747561
 20
272.0701259591924
 30
0.0
 10
-12.31634773842492
 20
272.0743278680386
 30
0.0
 11
-12.2269050193249
 21
272.0800082254817
 31
0.0
 11
-12.27438161663919
 21
272.0663220762438
 31
0.0
 11
-12.31634773842492
 21
272.0743278680386
 31
0.0
  0
SPLINE
  5
3CB
330
1F
100
AcDbEntity
  8
0
  6
Continuous
 62
     7
100
AcDbSpline
210
0.0
220
0.0
230
1.0
 70
     8
 71
     3
 72
    11
 73
     7
 74
     5
 42
0.000000001
 43
0.0000000001
 44
0.00000001
 40
0.0
 40
0.0
 40
0.0
 40
0.0
 40
0.2734929447816987
 40
0.5672714726690453
 40
0.8945310674976836
 40
1.259444972373498
 40
1.259444972373498
 40
1.259444972373498
 40
1.259444972373498
 10
-12.73242348067223
 20
271.1784285313357
 30
0.0
 10
-12.80985191590732
 20
271.2283886437388
 30
0.0
 10
-12.97045181753703
 20
271.3320145333848
 30
0.0
 10
-13.13239796909874
 20
271.5915678153974
 30
0.0
 10
-13.23523404309453
 20
271.906628318604
 30
0.0
 10
-13.24634968990684
 20
272.1381289738326
 30
0.0
 10
-13.25220985204541
 20
272.260176132149
 30
0.0
 11
-12.73242348067223
 21
271.1784285313357
 31
0.0
 11
-12.95125031191117
 21
271.3424809932914
 31
0.0
 11
-13.11567212181196
 21
271.5859379589493
 31
0.0
 11
-13.21765308492499
 21
271.8969021486527
 31
0.0
 11
-13.25220985204541
 21
272.260176132149
 31
0.0
  0
SPLINE
  5
3CC
330
1F
100
AcDbEntity
  8
0
  6
Continuous
 62
     7
100
AcDbSpline
210
0.0
220
0.0
230
1.0
 70
     8
 71
     3
 72
    11
 73
     7
 74
     5
 42
0.000000001
 43
0.0000000001
 44
0.00000001
 40
0.0
 40
0.0
 40
0.0
 40
0.0
 40
0.0273492920126952
 40
0.0567271413537469
 40
0.0894530984880821
 40
0.1259444898791594
 40
0.1259444898791594
 40
0.1259444898791594
 40
0.1259444898791594
 10
-12.31634773842492
 20
272.0743278680386
 30
0.0
 10
-12.32409058125043
 20
272.0793238788285
 30
0.0
 10
-12.34015056166412
 20
272.0896864771691
 30
0.0
 10
-12.35634518032006
 20
272.1156417979111
 30
0.0
 10
-12.36662878198112
 20
272.1471478484762
 30
0.0
 10
-12.36774035933388
 20
272.170297911986
 30
0.0
 10
-12.36832637556225
 20
272.1825026281199
 30
0.0
 11
-12.31634773842492
 21
272.0743278680386
 31
0.0
 11
-12.33823042154883
 21
272.0907331142342
 31
0.0
 11
-12.35467260253893
 21
272.1150788107999
 31
0.0
 11
-12.36487069885021
 21
272.1461752297702
 31
0.0
 11
-12.36832637556225
 21
272.1825026281199
 31
0.0
  0
SPLINE
  5
3CD
330
1F
100
AcDbEntity
  8
0
  6
Continuous
 62
     7
100
AcDbSpline
210
0.0
220
0.0
230
1.0
 70
     8
 71
     3
 72
    13
 73
     9
 74
     7
 42
0.000000001
 43
0.0000000001
 44
0.00000001
 40
0.0
 40
0.0
 40
0.0
 40
0.0
 40
0.1109132967657226
 40
0.234062822387966
 40
0.3637524072084758
 40
0.4934419920289856
 40
0.616591517651222
 40
0.7275048144169048
 40
0.7275048144169048
 40
0.7275048144169048
 40
0.7275048144169048
 10
-51.01171196740714
 20
249.8467316490682
 30
0.0
 10
-50.97757826171543
 20
249.832294646208
 30
0.0
 10
-50.90554513019927
 20
249.8018279288164
 30
0.0
 10
-50.78562448894457
 20
249.7792672485486
 30
0.0
 10
-50.65815857681383
 20
249.7705545269354
 30
0.0
 10
-50.53069266468311
 20
249.7792672485487
 30
0.0
 10
-50.41077202342839
 20
249.8018279288163
 30
0.0
 10
-50.33873889191229
 20
249.8322946462079
 30
0.0
 10
-50.30460518622058
 20
249.8467316490682
 30
0.0
 11
-51.01171196740714
 21
249.8467316490682
 31
0.0
 11
-50.90815851016241
 21
249.8070020511406
 31
0.0
 11
-50.7875680993651
 21
249.7820268877925
 31
0.0
 11
-50.65815857681383
 21
249.7735084110163
 31
0.0
 11
-50.52874905426256
 21
249.7820268877925
 31
0.0
 11
-50.40815864346526
 21
249.8070020511406
 31
0.0
 11
-50.30460518622058
 21
249.8467316490682
 31
0.0
  0
ARC
  5
3CE
102
{ACAD_REACTORS
330
408
102
}
330
1F
100
AcDbEntity
  8
1
  6
Continuous
 62
     7
100
AcDbCircle
 10
-15.65703264459066
 20
10.07749983983263
 30
0.0
 40
0.3333333333333108
100
AcDbArc
 50
180.0
 51
299.9816393688416
  0
ARC
  5
3CF
102
{ACAD_REACTORS
330
408
102
}
330
1F
100
AcDbEntity
  8
1
  6
Continuous
 62
     7
100
AcDbCircle
 10
-15.65703264459066
 20
14.92250016016737
 30
0.0
 40
0.3333333333333447
100
AcDbArc
 50
60.0183606311584
 51
180.0
  0
ARC
  5
3D0
330
1F
100
AcDbEntity
  8
1
  6
Continuous
 62
     7
100
AcDbCircle
 10
-9.99055111169744
 20
12.5
 30
0.0
 40
0.1666666666666586
100
AcDbArc
 50
299.9816393688334
 51
60.01836063114615
  0
ARC
  5
3D1
330
1F
100
AcDbEntity
  8
1
  6
Continuous
 62
     7
100
AcDbCircle
 10
-26.65684751081719
 20
12.5
 30
0.0
 40
0.1666666666666389
100
AcDbArc
 50
119.9816393689036
 51
240.0183606311169
  0
ARC
  5
3D2
102
{ACAD_REACTORS
330
40A
102
}
330
1F
100
AcDbEntity
  8
1
  6
Continuous
 62
     7
100
AcDbCircle
 10
-20.65703264459066
 20
10.2700211480327
 30
0.0
 40
0.6666666666666785
100
AcDbArc
 50
180.0000000000104
 51
240.0183606311582
  0
ARC
  5
3D3
102
{ACAD_REACTORS
330
40B
102
}
330
1F
100
AcDbEntity
  8
1
  6
Continuous
 62
     7
100
AcDbCircle
 10
-18.32369931125734
 20
12.83333333333326
 30
0.0
 40
0.166666666666712
100
AcDbArc
 50
209.9999999999616
 51
330.0000000000177
  0
MTEXT
  5
3D5
330
1F
100
AcDbEntity
  8
1
 62
     4
100
AcDbMText
 10
-57.22276330680799
 20
211.0069194466675
 30
0.0
 40
3.5
 41
0.0
 71
     2
 72
     1
  1
 
  7
CONVERTER_11
 73
     1
 44
1.32052821128451
  0
MTEXT
  5
3D7
330
1F
100
AcDbEntity
  8
1
 62
     7
100
AcDbMText
 10
-40.32369931125734
 20
10.06063942075605
 30
0.0
 40
4.5
 41
0.0
 71
     5
 72
     1
  1
1:1
  7
CONVERTER_12
 73
     1
 44
1.32052821128451
  0
MTEXT
  5
3D8
330
1F
100
AcDbEntity
  8
1
 62
     7
100
AcDbMText
 10
-40.32369931125734
 20
16.26063942075598
 30
0.0
 40
3.0
 41
0.0
 71
     5
 72
     1
  1
Scale
  7
CONVERTER_12
 73
     1
 44
1.32052821128451
  0
MTEXT
  5
3D9
330
1F
100
AcDbEntity
  8
1
 62
     7
100
AcDbMText
 10
-152.7236993112572
 20
12.5
 30
0.0
 40
4.5
 41
0.0
 71
     4
 72
     1
  1
CX 02 BM\Pmale bus module for 2 shielded connectors
  7
CONVERTER_12
 73
     1
 44
0.90036014405762
  0
MTEXT
  5
3DA
330
1F
100
AcDbEntity
  8
1
 62
     7
100
AcDbMText
 10
-177.4
 20
7.49999999999987
 30
0.0
 40
3.0
 41
0.0
 71
     4
 72
     1
  1
T.Tedeschi
  7
CONVERTER_12
 73
     1
 44
1.32052821128451
  0
MTEXT
  5
3DB
330
1F
100
AcDbEntity
  8
1
 62
     7
100
AcDbMText
 10
-188.0
 20
7.49999999999987
 30
0.0
 40
3.0
 41
0.0
 71
     4
 72
     1
  1
Sign.
  7
CONVERTER_12
 73
     1
 44
1.32052821128451
  0
MTEXT
  5
3DC
330
1F
100
AcDbEntity
  8
1
 62
     7
100
AcDbMText
 10
-177.4
 20
12.49999999999987
 30
0.0
 40
3.0
 41
0.0
 71
     4
 72
     1
  1
26/09/11
  7
CONVERTER_12
 73
     1
 44
1.32052821128451
  0
MTEXT
  5
3DD
330
1F
100
AcDbEntity
  8
1
 62
     7
100
AcDbMText
 10
-188.0
 20
12.49999999999987
 30
0.0
 40
3.0
 41
0.0
 71
     4
 72
     1
  1
Date
  7
CONVERTER_12
 73
     1
 44
1.32052821128451
  0
MTEXT
  5
3DE
330
1F
100
AcDbEntity
  8
1
 62
     7
100
AcDbMText
 10
-194.0
 20
151.4999999999998
 30
0.0
 40
4.0
 41
0.0
 71
     5
 72
     1
  1
Diritti riservati      All rights reserved
  7
CONVERTER_12
 11
0.0
 21
1.0
 31
0.0
 73
     1
 44
1.32052821128451
  0
MTEXT
  5
3E0
330
1F
100
AcDbEntity
  8
1
 62
     7
100
AcDbMText
 10
-174.0
 20
17.49999999999994
 30
0.0
 40
2.5
 41
0.0
 71
     5
 72
     1
  1
dimensions in mm
  7
CONVERTER_13
 73
     1
 44
0.60024009603842
  0
MTEXT
  5
3E1
330
1F
100
AcDbEntity
  8
1
 62
     4
100
AcDbMText
 10
-60.09409316657664
 20
201.3607508308655
 30
0.0
 40
3.5
 41
0.0
 71
     2
 72
     1
  1
 
  7
CONVERTER_11
 73
     1
 44
1.32052821128451
  0
MTEXT
  5
3E2
330
1F
100
AcDbEntity
  8
1
 62
     4
100
AcDbMText
 10
-133.2940931663967
 20
138.449924400742
 30
0.0
 40
3.5
 41
0.0
 71
     2
 72
     1
  1
 
  7
CONVERTER_11
 73
     1
 44
1.32052821128451
  0
MTEXT
  5
3E3
330
1F
100
AcDbEntity
  8
1
 62
     4
100
AcDbMText
 10
-62.14409295218999
 20
138.449924400742
 30
0.0
 40
3.5
 41
0.0
 71
     2
 72
     1
  1
 
  7
CONVERTER_11
 73
     1
 44
1.32052821128451
  0
MTEXT
  5
3E4
330
1F
100
AcDbEntity
  8
1
 62
     4
100
AcDbMText
 10
-133.2940931663968
 20
200.9499244006518
 30
0.0
 40
3.5
 41
0.0
 71
     2
 72
     1
  1
 
  7
CONVERTER_11
 73
     1
 44
1.32052821128451
  0
MTEXT
  5
3E5
330
1F
100
AcDbEntity
  8
1
 62
     4
100
AcDbMText
 10
-133.2940931663968
 20
65.13957051512193
 30
0.0
 40
3.5
 41
0.0
 71
     2
 72
     1
  1
 
  7
CONVERTER_11
 73
     1
 44
1.32052821128451
  0
DIMENSION
  5
3F1
330
1F
100
AcDbEntity
  8
1
100
AcDbDimension
  2
*D1
 10
-148.4440931545811
 20
189.2261016676459
 30
0.0
 11
-133.7440931545811
 21
192.8761016676459
 31
0.0
 70
    32
  1
<>
 71
     5
 42
-1.0
 53
0.00013888888889
  3
ME10_DIM_10
100
AcDbAlignedDimension
 13
-119.0440931545811
 23
177.4499244008372
 33
0.0
 14
-148.4440931545811
 24
177.4499244008372
 34
0.0
100
AcDbRotatedDimension
  0
DIMENSION
  5
3FC
330
1F
100
AcDbEntity
  8
1
100
AcDbDimension
  2
*D2
 10
-77.1440926140613
 20
189.2345010804189
 30
0.0
 11
-62.14409261406129
 21
192.7345010804189
 31
0.0
 70
    32
  1
<>
 71
     5
 42
-1.0
 53
0.00013888888889
  3
ME10_DIM_11
100
AcDbAlignedDimension
 13
-47.14409261406129
 23
177.4499244008372
 33
0.0
 14
-77.1440926140613
 24
177.4499244008372
 34
0.0
100
AcDbRotatedDimension
  0
DIMENSION
  5
407
330
1F
100
AcDbEntity
  8
1
100
AcDbDimension
  2
*D3
 10
-31.04191062442496
 20
177.4499244008372
 30
0.0
 11
-34.54191062442496
 21
160.4499244008372
 31
0.0
 70
    32
  1
<>
 71
     5
 42
-1.0
 53
90.0
  3
ME10_DIM_12
100
AcDbAlignedDimension
 13
-47.14409261406129
 23
143.4499244008372
 33
0.0
 14
-45.14409261406129
 24
177.4499244008372
 34
0.0
 50
90.0
100
AcDbRotatedDimension
  0
HATCH
  5
408
330
1F
100
AcDbEntity
  8
1
  6
Continuous
 62
     7
100
AcDbHatch
 10
0.0
 20
0.0
 30
0.0
210
0.0
220
0.0
230
1.0
  2
SOLID
 70
     1
 71
     1
 91
        1
 92
        1
 93
       14
 72
     2
 10
-15.65703264459066
 20
14.92250016016737
 40
0.3333333333333447
 50
60.0183606311584
 51
180.0
 73
     1
 72
     1
 10
-15.99036597792397
 20
14.92250016016737
 11
-15.99036597792397
 21
10.07749983983263
 72
     2
 10
-15.65703264459066
 20
10.07749983983263
 40
0.3333333333333108
 50
180.0
 51
299.9816393688416
 73
     1
 72
     1
 10
-15.4904584934275
 20
9.78877131114973
 11
-14.15712516009424
 21
10.55800208038033
 72
     2
 10
-14.32369931125729
 20
10.84673060906323
 40
0.3333333333332896
 50
299.9816393688252
 51
479.9816393688486
 73
     1
 72
     1
 10
-14.49027346242056
 20
11.13545913774624
 11
-15.32369931125729
 21
10.65463653264794
 72
     1
 10
-15.32369931125729
 20
10.65463653264794
 11
-15.32369931125729
 21
12.16666666666663
 72
     1
 10
-15.32369931125729
 20
12.16666666666663
 11
-14.32369931125729
 21
12.16666666666663
 72
     2
 10
-14.32369931125729
 20
12.5
 40
0.3333333333333695
 50
270.0
 51
450.0
 73
     1
 72
     1
 10
-14.32369931125729
 20
12.83333333333326
 11
-15.32369931125729
 21
12.83333333333326
 72
     1
 10
-15.32369931125729
 20
12.83333333333326
 11
-15.32369931125729
 21
14.34536346735194
 72
     1
 10
-15.32369931125729
 20
14.34536346735194
 11
-14.49027346242056
 21
13.86454086225376
 72
     2
 10
-14.32369931125729
 20
14.15326939093666
 40
0.3333333333334021
 50
240.0183606311419
 51
420.0183606311646
 73
     1
 72
     1
 10
-14.15712516009424
 20
14.44199791961944
 11
-15.4904584934275
 21
15.21122868885027
 97
       14
330
320
330
5B
330
5A
330
59
330
31F
330
58
330
57
330
56
330
31E
330
55
330
3CE
330
73
330
3CF
330
5C
 75
     0
 76
     1
 98
        1
 10
0.0
 20
0.0
  0
HATCH
  5
409
330
1F
100
AcDbEntity
  8
1
  6
Continuous
 62
     7
100
AcDbHatch
 10
0.0
 20
0.0
 30
0.0
210
0.0
220
0.0
230
1.0
  2
SOLID
 70
     1
 71
     1
 91
        1
 92
        1
 93
        5
 72
     2
 10
-22.32369931125734
 20
14.15326939093666
 40
0.3333333333333108
 50
0.0
 51
180.0
 73
     1
 72
     1
 10
-22.65703264459066
 20
14.15326939093666
 11
-22.65703264459066
 21
10.84673060906323
 72
     2
 10
-22.32369931125734
 20
10.84673060906323
 40
0.3333333333333215
 50
180.0
 51
360.0
 73
     1
 72
     1
 10
-21.99036597792403
 20
10.84673060906323
 11
-21.99036597792403
 21
11.0392519172633
 72
     1
 10
-21.99036597792403
 20
11.0392519172633
 11
-21.99036597792403
 21
14.15326939093666
 97
        5
330
322
330
5D
330
321
330
5E
330
5F
 75
     0
 76
     1
 98
        1
 10
0.0
 20
0.0
  0
HATCH
  5
40A
330
1F
100
AcDbEntity
  8
1
  6
Continuous
 62
     7
100
AcDbHatch
 10
0.0
 20
0.0
 30
0.0
210
0.0
220
0.0
230
1.0
  2
SOLID
 70
     1
 71
     1
 91
        1
 92
        1
 93
        7
 72
     2
 10
-20.99036597792403
 20
14.92250016016737
 40
0.3333333333333677
 50
0.0
 51
180.0
 73
     1
 72
     1
 10
-21.32369931125734
 20
14.92250016016737
 11
-21.32369931125734
 21
10.27002114803258
 72
     2
 10
-20.65703264459066
 20
10.2700211480327
 40
0.6666666666666785
 50
180.0000000000104
 51
240.0183606311582
 73
     1
 72
     1
 10
-20.99018094691698
 20
9.692564090666906
 11
-18.82360679575393
 21
8.442617464995806
 72
     2
 10
-18.65703264459066
 20
8.731345993678701
 40
0.3333333333333958
 50
240.018360631142
 51
420.0183606311578
 73
     1
 72
     1
 10
-18.4904584934275
 20
9.020074522361597
 11
-20.65703264459066
 21
10.2700211480327
 72
     1
 10
-20.65703264459066
 20
10.2700211480327
 11
-20.65703264459066
 21
14.92250016016737
 97
        7
330
324
330
63
330
3D2
330
60
330
323
330
61
330
62
 75
     0
 76
     1
 98
        1
 10
0.0
 20
0.0
  0
HATCH
  5
40B
330
1F
100
AcDbEntity
  8
1
  6
Continuous
 62
     7
100
AcDbHatch
 10
0.0
 20
0.0
 30
0.0
210
0.0
220
0.0
230
1.0
  2
SOLID
 70
     1
 71
     1
 91
        1
 92
        1
 93
       16
 72
     2
 10
-16.92199885706603
 20
15.73121731203457
 40
0.2649662124753682
 50
210.0000000000254
 51
360.0
 73
     0
 72
     1
 10
-16.65703264459066
 20
15.73121731203457
 11
-16.65703264459066
 21
9.308269070601796
 72
     2
 10
-16.99036597792397
 20
9.308269070601796
 40
0.3333333333333677
 50
0.0
 51
180.0
 73
     0
 72
     1
 10
-17.32369931125734
 20
9.308269070601796
 11
-17.32369931125734
 21
12.5
 72
     1
 10
-17.32369931125734
 20
12.5
 11
-17.32369931125734
 21
14.23205080756884
 72
     1
 10
-17.32369931125734
 20
14.23205080756884
 11
-18.17936174395996
 21
12.75
 72
     2
 10
-18.32369931125734
 20
12.83333333333326
 40
0.166666666666712
 50
29.99999999998236
 51
150.0000000000384
 73
     0
 72
     1
 10
-18.46803687855484
 20
12.75
 11
-19.32369931125734
 21
14.23205080756884
 72
     1
 10
-19.32369931125734
 20
14.23205080756884
 11
-19.32369931125734
 21
12.5
 72
     1
 10
-19.32369931125734
 20
12.5
 11
-19.32369931125734
 21
10.84758507263291
 72
     2
 10
-19.65703264459066
 20
10.84758507263291
 40
0.3333333333333677
 50
0.0
 51
180.0
 73
     0
 72
     1
 10
-19.99036597792403
 20
10.84758507263291
 11
-19.99036597792403
 21
12.5
 72
     1
 10
-19.99036597792403
 20
12.5
 11
-19.99036597792403
 21
15.73121731203457
 72
     2
 10
-19.72539976544877
 20
15.73121731203457
 40
0.2649662124753838
 50
180.0
 51
329.9999999999931
 73
     0
 72
     1
 10
-19.49593229430056
 20
15.86370041827229
 11
-18.32369931125734
 21
13.83333333333326
 72
     1
 10
-18.32369931125734
 20
13.83333333333326
 11
-17.15146632821407
 21
15.86370041827229
 97
       16
330
69
330
328
330
6A
330
68
330
327
330
67
330
6F
330
70
330
3D3
330
71
330
72
330
66
330
326
330
65
330
325
330
64
 75
     0
 76
     1
 98
        1
 10
0.0
 20
0.0
  0
ENDSEC
  0
SECTION
  2
OBJECTS
  0
DICTIONARY
  5
C
330
0
100
AcDbDictionary
281
     1
  3
ACAD_GROUP
350
D
  3
ACAD_LAYOUT
350
1A
  3
ACAD_MATERIAL
350
3B
  3
ACAD_MLEADERSTYLE
350
40E
  3
ACAD_MLINESTYLE
350
17
  3
ACAD_PLOTSETTINGS
350
19
  3
ACAD_PLOTSTYLENAME
350
E
  3
ACAD_VISUALSTYLE
350
2A
  3
AcDbVariableDictionary
350
40C
  0
DICTIONARY
  5
D
102
{ACAD_REACTORS
330
C
102
}
330
C
100
AcDbDictionary
281
     1
  0
DICTIONARY
  5
1A
102
{ACAD_REACTORS
330
C
102
}
330
C
100
AcDbDictionary
281
     1
  3
Layout1
350
1E
  3
Layout2
350
26
  3
Model
350
22
  0
DICTIONARY
  5
3B
102
{ACAD_REACTORS
330
C
102
}
330
C
100
AcDbDictionary
281
     1
  3
ByBlock
350
3D
  3
ByLayer
350
3C
  3
Global
350
3E
  0
DICTIONARY
  5
40E
102
{ACAD_REACTORS
330
C
102
}
330
C
100
AcDbDictionary
281
     1
  0
DICTIONARY
  5
17
102
{ACAD_REACTORS
330
C
102
}
330
C
100
AcDbDictionary
281
     1
  3
Standard
350
18
  0
DICTIONARY
  5
19
102
{ACAD_REACTORS
330
C
102
}
330
C
100
AcDbDictionary
281
     1
  0
ACDBDICTIONARYWDFLT
  5
E
102
{ACAD_REACTORS
330
C
102
}
330
C
100
AcDbDictionary
281
     1
  3
Normal
350
F
100
AcDbDictionaryWithDefault
340
F
  0
DICTIONARY
  5
2A
102
{ACAD_REACTORS
330
C
102
}
330
C
100
AcDbDictionary
281
     1
  3
2dWireframe
350
2F
  3
3D Hidden
350
31
  3
3dWireframe
350
30
  3
Basic
350
32
  3
Brighten
350
36
  3
ColorChange
350
3A
  3
Conceptual
350
34
  3
Dim
350
35
  3
Facepattern
350
39
  3
Flat
350
2B
  3
FlatWithEdges
350
2C
  3
Gouraud
350
2D
  3
GouraudWithEdges
350
2E
  3
Linepattern
350
38
  3
Realistic
350
33
  3
Thicken
350
37
  0
DICTIONARY
  5
40C
102
{ACAD_REACTORS
330
C
102
}
330
C
100
AcDbDictionary
281
     1
  3
DIMASSOC
350
40F
  3
HIDETEXT
350
410
  0
LAYOUT
  5
1E
102
{ACAD_REACTORS
330
1A
102
}
330
1A
100
AcDbPlotSettings
  1

  2
none_device
  4

  6

 40
0.0
 41
0.0
 42
0.0
 43
0.0
 44
0.0
 45
0.0
 46
0.0
 47
0.0
 48
0.0
 49
0.0
140
0.0
141
0.0
142
1.0
143
1.0
 70
   688
 72
     0
 73
     0
 74
     5
  7

 75
    16
147
1.0
148
0.0
149
0.0
100
AcDbLayout
  1
Layout1
 70
     1
 71
     1
 10
0.0
 20
0.0
 11
12.0
 21
9.0
 12
0.0
 22
0.0
 32
0.0
 14
1.00000000000000E+20
 24
1.00000000000000E+20
 34
1.00000000000000E+20
 15
-1.00000000000000E+20
 25
-1.00000000000000E+20
 35
-1.00000000000000E+20
146
0.0
 13
0.0
 23
0.0
 33
0.0
 16
1.0
 26
0.0
 36
0.0
 17
0.0
 27
1.0
 37
0.0
 76
     0
330
1B
  0
LAYOUT
  5
26
102
{ACAD_REACTORS
330
1A
102
}
330
1A
100
AcDbPlotSettings
  1

  2
none_device
  4

  6

 40
0.0
 41
0.0
 42
0.0
 43
0.0
 44
0.0
 45
0.0
 46
0.0
 47
0.0
 48
0.0
 49
0.0
140
0.0
141
0.0
142
1.0
143
1.0
 70
   688
 72
     0
 73
     0
 74
     5
  7

 75
    16
147
1.0
148
0.0
149
0.0
100
AcDbLayout
  1
Layout2
 70
     1
 71
     2
 10
0.0
 20
0.0
 11
0.0
 21
0.0
 12
0.0
 22
0.0
 32
0.0
 14
0.0
 24
0.0
 34
0.0
 15
0.0
 25
0.0
 35
0.0
146
0.0
 13
0.0
 23
0.0
 33
0.0
 16
1.0
 26
0.0
 36
0.0
 17
0.0
 27
1.0
 37
0.0
 76
     0
330
23
  0
LAYOUT
  5
22
102
{ACAD_REACTORS
330
1A
102
}
330
1A
100
AcDbPlotSettings
  1

  2
none_device
  4

  6

 40
0.0
 41
0.0
 42
0.0
 43
0.0
 44
0.0
 45
0.0
 46
0.0
 47
0.0
 48
0.0
 49
0.0
140
0.0
141
0.0
142
1.0
143
1.0
 70
  1712
 72
     0
 73
     0
 74
     0
  7

 75
     0
147
1.0
148
0.0
149
0.0
100
AcDbLayout
  1
Model
 70
     1
 71
     0
 10
0.0
 20
0.0
 11
12.0
 21
9.0
 12
0.0
 22
0.0
 32
0.0
 14
-210.0
 24
0.0
 34
0.0
 15
0.0
 25
297.0000000000001
 35
0.0
146
0.0
 13
0.0
 23
0.0
 33
0.0
 16
1.0
 26
0.0
 36
0.0
 17
0.0
 27
1.0
 37
0.0
 76
     0
330
1F
331
29
  0
MATERIAL
  5
3D
102
{ACAD_REACTORS
330
3B
102
}
102
{ACAD_XDICTIONARY
360
433
102
}
330
3B
100
AcDbMaterial
  1
ByBlock
  0
MATERIAL
  5
3C
102
{ACAD_REACTORS
330
3B
102
}
102
{ACAD_XDICTIONARY
360
431
102
}
330
3B
100
AcDbMaterial
  1
ByLayer
  0
MATERIAL
  5
3E
102
{ACAD_REACTORS
330
3B
102
}
102
{ACAD_XDICTIONARY
360
435
102
}
330
3B
100
AcDbMaterial
  1
Global
  0
MLINESTYLE
  5
18
102
{ACAD_REACTORS
330
17
102
}
330
17
100
AcDbMlineStyle
  2
Standard
 70
     0
  3

 62
   256
 51
90.0
 52
90.0
 71
     2
 49
0.5
 62
   256
  6
BYLAYER
 49
-0.5
 62
   256
  6
BYLAYER
  0
ACDBPLACEHOLDER
  5
F
102
{ACAD_REACTORS
330
E
102
}
330
E
  0
VISUALSTYLE
  5
2F
102
{ACAD_REACTORS
330
2A
102
}
102
{ACAD_XDICTIONARY
360
419
102
}
330
2A
100
AcDbVisualStyle
  2
2dWireframe
 70
     4
 71
     0
 72
     2
 73
     0
 90
        0
 40
-0.6
 41
-30.0
 62
     5
 63
     7
 74
     1
 91
        4
 64
     7
 65
   257
 75
     1
175
     1
 42
1.0
 92
        0
 66
   257
 43
1.0
 76
     1
 77
     6
 78
     2
 67
     7
 79
     5
170
     0
171
     0
290
     0
174
     0
 93
        1
 44
0.0
173
     0
291
     0
 45
0.0
1001
ACAD
1000
AcDbSavedByObjectVersion
1070
     0
  0
VISUALSTYLE
  5
31
102
{ACAD_REACTORS
330
2A
102
}
102
{ACAD_XDICTIONARY
360
41D
102
}
330
2A
100
AcDbVisualStyle
  2
3D Hidden
 70
     6
 71
     1
 72
     2
 73
     2
 90
        0
 40
-0.6
 41
-30.0
 62
     5
 63
     7
 74
     2
 91
        2
 64
     7
 65
   257
 75
     2
175
     1
 42
40.0
 92
        0
 66
   257
 43
1.0
 76
     1
 77
     6
 78
     2
 67
     7
 79
     3
170
     0
171
     0
290
     0
174
     0
 93
        1
 44
0.0
173
     0
291
     0
 45
0.0
1001
ACAD
1000
AcDbSavedByObjectVersion
1070
     0
  0
VISUALSTYLE
  5
30
102
{ACAD_REACTORS
330
2A
102
}
102
{ACAD_XDICTIONARY
360
41B
102
}
330
2A
100
AcDbVisualStyle
  2
3dWireframe
 70
     5
 71
     0
 72
     2
 73
     0
 90
        0
 40
-0.6
 41
-30.0
 62
     5
 63
     7
 74
     1
 91
        4
 64
     7
 65
   257
 75
     1
175
     1
 42
1.0
 92
        0
 66
   257
 43
1.0
 76
     1
 77
     6
 78
     2
 67
     7
 79
     5
170
     0
171
     0
290
     0
174
     0
 93
        1
 44
0.0
173
     0
291
     0
 45
0.0
1001
ACAD
1000
AcDbSavedByObjectVersion
1070
     0
  0
VISUALSTYLE
  5
32
102
{ACAD_REACTORS
330
2A
102
}
102
{ACAD_XDICTIONARY
360
41F
102
}
330
2A
100
AcDbVisualStyle
  2
Basic
 70
     7
 71
     1
 72
     0
 73
     1
 90
        0
 40
-0.6
 41
-30.0
 62
     5
 63
     7
 74
     0
 91
        4
 64
     7
 65
   257
 75
     1
175
     1
 42
1.0
 92
        8
 66
     7
 43
1.0
 76
     1
 77
     6
 78
     2
 67
     7
 79
     5
170
     0
171
     0
290
     0
174
     0
 93
        1
 44
0.0
173
     0
291
     1
 45
0.0
1001
ACAD
1000
AcDbSavedByObjectVersion
1070
     0
  0
VISUALSTYLE
  5
36
102
{ACAD_REACTORS
330
2A
102
}
102
{ACAD_XDICTIONARY
360
427
102
}
330
2A
100
AcDbVisualStyle
  2
Brighten
 70
    12
 71
     2
 72
     2
 73
     0
 90
        0
 40
-0.6
 41
-30.0
 62
     5
 63
     7
 74
     1
 91
        4
 64
     7
 65
   257
 75
     1
175
     1
 42
1.0
 92
        8
 66
     7
 43
1.0
 76
     1
 77
     6
 78
     2
 67
     7
 79
     5
170
     0
171
     0
290
     0
174
     0
 93
        1
 44
50.0
173
     0
291
     1
 45
0.0
1001
ACAD
1000
AcDbSavedByObjectVersion
1070
     0
  0
VISUALSTYLE
  5
3A
102
{ACAD_REACTORS
330
2A
102
}
102
{ACAD_XDICTIONARY
360
42F
102
}
330
2A
100
AcDbVisualStyle
  2
ColorChange
 70
    16
 71
     2
 72
     2
 73
     3
 90
        0
 40
-0.6
 41
-30.0
 62
     5
 63
     8
 74
     1
 91
        4
 64
     7
 65
   257
 75
     1
175
     1
 42
1.0
 92
        8
 66
     8
 43
1.0
 76
     1
 77
     6
 78
     2
 67
     7
 79
     5
170
     0
171
     0
290
     0
174
     0
 93
        1
 44
0.0
173
     0
291
     1
 45
0.0
1001
ACAD
1000
AcDbSavedByObjectVersion
1070
     0
  0
VISUALSTYLE
  5
34
102
{ACAD_REACTORS
330
2A
102
}
102
{ACAD_XDICTIONARY
360
423
102
}
330
2A
100
AcDbVisualStyle
  2
Conceptual
 70
     9
 71
     3
 72
     2
 73
     0
 90
        0
 40
-0.6
 41
-30.0
 62
     5
 63
     7
 74
     2
 91
        2
 64
     7
 65
   257
 75
     1
175
     1
 42
40.0
 92
        8
 66
     7
 43
1.0
 76
     1
 77
     6
 78
     2
 67
     7
 79
     3
170
     0
171
     0
290
     0
174
     0
 93
        1
 44
0.0
173
     0
291
     0
 45
0.0
1001
ACAD
1000
AcDbSavedByObjectVersion
1070
     0
  0
VISUALSTYLE
  5
35
102
{ACAD_REACTORS
330
2A
102
}
102
{ACAD_XDICTIONARY
360
425
102
}
330
2A
100
AcDbVisualStyle
  2
Dim
 70
    11
 71
     2
 72
     2
 73
     0
 90
        0
 40
-0.6
 41
-30.0
 62
     5
 63
     7
 74
     1
 91
        4
 64
     7
 65
   257
 75
     1
175
     1
 42
1.0
 92
        8
 66
     7
 43
1.0
 76
     1
 77
     6
 78
     2
 67
     7
 79
     5
170
     0
171
     0
290
     0
174
     0
 93
        1
 44
-50.0
173
     0
291
     1
 45
0.0
1001
ACAD
1000
AcDbSavedByObjectVersion
1070
     0
  0
VISUALSTYLE
  5
39
102
{ACAD_REACTORS
330
2A
102
}
102
{ACAD_XDICTIONARY
360
42D
102
}
330
2A
100
AcDbVisualStyle
  2
Facepattern
 70
    15
 71
     2
 72
     2
 73
     0
 90
        0
 40
-0.6
 41
-30.0
 62
     5
 63
     7
 74
     1
 91
        4
 64
     7
 65
   257
 75
     1
175
     1
 42
1.0
 92
        8
 66
     7
 43
1.0
 76
     1
 77
     6
 78
     2
 67
     7
 79
     5
170
     0
171
     0
290
     0
174
     0
 93
        1
 44
0.0
173
     0
291
     1
 45
0.0
1001
ACAD
1000
AcDbSavedByObjectVersion
1070
     0
  0
VISUALSTYLE
  5
2B
102
{ACAD_REACTORS
330
2A
102
}
102
{ACAD_XDICTIONARY
360
411
102
}
330
2A
100
AcDbVisualStyle
  2
Flat
 70
     0
 71
     2
 72
     1
 73
     1
 90
        2
 40
-0.6
 41
30.0
 62
     5
 63
     7
 74
     0
 91
        4
 64
     7
 65
   257
 75
     1
175
     1
 42
1.0
 92
        8
 66
     7
 43
1.0
 76
     1
 77
     6
 78
     2
 67
     7
 79
     5
170
     0
171
     0
290
     0
174
     0
 93
       13
 44
0.0
173
     0
291
     1
 45
0.0
1001
ACAD
1000
AcDbSavedByObjectVersion
1070
     0
  0
VISUALSTYLE
  5
2C
102
{ACAD_REACTORS
330
2A
102
}
102
{ACAD_XDICTIONARY
360
413
102
}
330
2A
100
AcDbVisualStyle
  2
FlatWithEdges
 70
     1
 71
     2
 72
     1
 73
     1
 90
        2
 40
-0.6
 41
30.0
 62
     5
 63
     7
 74
     1
 91
        4
 64
     7
 65
   257
 75
     1
175
     1
 42
1.0
 92
        0
 66
   257
 43
1.0
 76
     1
 77
     6
 78
     2
 67
     7
 79
     5
170
     0
171
     0
290
     0
174
     0
 93
       13
 44
0.0
173
     0
291
     1
 45
0.0
1001
ACAD
1000
AcDbSavedByObjectVersion
1070
     0
  0
VISUALSTYLE
  5
2D
102
{ACAD_REACTORS
330
2A
102
}
102
{ACAD_XDICTIONARY
360
415
102
}
330
2A
100
AcDbVisualStyle
  2
Gouraud
 70
     2
 71
     2
 72
     2
 73
     1
 90
        2
 40
-0.6
 41
30.0
 62
     5
 63
     7
 74
     0
 91
        4
 64
     7
 65
   257
 75
     1
175
     1
 42
1.0
 92
        0
 66
     7
 43
1.0
 76
     1
 77
     6
 78
     2
 67
     7
 79
     5
170
     0
171
     0
290
     0
174
     0
 93
       13
 44
0.0
173
     0
291
     1
 45
0.0
1001
ACAD
1000
AcDbSavedByObjectVersion
1070
     0
  0
VISUALSTYLE
  5
2E
102
{ACAD_REACTORS
330
2A
102
}
102
{ACAD_XDICTIONARY
360
417
102
}
330
2A
100
AcDbVisualStyle
  2
GouraudWithEdges
 70
     3
 71
     2
 72
     2
 73
     1
 90
        2
 40
-0.6
 41
30.0
 62
     5
 63
     7
 74
     1
 91
        4
 64
     7
 65
   257
 75
     1
175
     1
 42
1.0
 92
        0
 66
   257
 43
1.0
 76
     1
 77
     6
 78
     2
 67
     7
 79
     5
170
     0
171
     0
290
     0
174
     0
 93
       13
 44
0.0
173
     0
291
     1
 45
0.0
1001
ACAD
1000
AcDbSavedByObjectVersion
1070
     0
  0
VISUALSTYLE
  5
38
102
{ACAD_REACTORS
330
2A
102
}
102
{ACAD_XDICTIONARY
360
42B
102
}
330
2A
100
AcDbVisualStyle
  2
Linepattern
 70
    14
 71
     2
 72
     2
 73
     0
 90
        0
 40
-0.6
 41
-30.0
 62
     5
 63
     7
 74
     1
 91
        4
 64
     7
 65
   257
 75
     7
175
     7
 42
1.0
 92
        8
 66
     7
 43
1.0
 76
     1
 77
     6
 78
     2
 67
     7
 79
     5
170
     0
171
     0
290
     0
174
     0
 93
        1
 44
0.0
173
     0
291
     1
 45
0.0
1001
ACAD
1000
AcDbSavedByObjectVersion
1070
     0
  0
VISUALSTYLE
  5
33
102
{ACAD_REACTORS
330
2A
102
}
102
{ACAD_XDICTIONARY
360
421
102
}
330
2A
100
AcDbVisualStyle
  2
Realistic
 70
     8
 71
     2
 72
     2
 73
     0
 90
        0
 40
-0.6
 41
-30.0
 62
     5
 63
     7
 74
     1
 91
        0
 64
     7
 65
   257
 75
     1
175
     1
 42
1.0
 92
        8
 66
     8
 43
1.0
 76
     1
 77
     6
 78
     2
 67
     7
 79
     5
170
     0
171
     0
290
     0
174
     0
 93
       13
 44
0.0
173
     0
291
     0
 45
0.0
1001
ACAD
1000
AcDbSavedByObjectVersion
1070
     0
  0
VISUALSTYLE
  5
37
102
{ACAD_REACTORS
330
2A
102
}
102
{ACAD_XDICTIONARY
360
429
102
}
330
2A
100
AcDbVisualStyle
  2
Thicken
 70
    13
 71
     2
 72
     2
 73
     0
 90
        0
 40
-0.6
 41
-30.0
 62
     5
 63
     7
 74
     1
 91
        4
 64
     7
 65
   257
 75
     1
175
     1
 42
1.0
 92
       12
 66
     7
 43
1.0
 76
     1
 77
     6
 78
     2
 67
     7
 79
     5
170
     0
171
     0
290
     0
174
     0
 93
        1
 44
0.0
173
     0
291
     1
 45
0.0
1001
ACAD
1000
AcDbSavedByObjectVersion
1070
     0
  0
DICTIONARYVAR
  5
40F
102
{ACAD_REACTORS
330
40C
102
}
330
40C
100
DictionaryVariables
280
     0
  1
2
  0
DICTIONARYVAR
  5
410
102
{ACAD_REACTORS
330
40C
102
}
330
40C
100
DictionaryVariables
280
     0
  1
1
  0
DICTIONARY
  5
433
330
3D
100
AcDbDictionary
280
     1
281
     1
  3
ACAD_XREC_ROUNDTRIP
360
434
  0
DICTIONARY
  5
431
330
3C
100
AcDbDictionary
280
     1
281
     1
  3
ACAD_XREC_ROUNDTRIP
360
432
  0
DICTIONARY
  5
435
330
3E
100
AcDbDictionary
280
     1
281
     1
  3
ACAD_XREC_ROUNDTRIP
360
436
  0
DICTIONARY
  5
419
330
2F
100
AcDbDictionary
280
     1
281
     1
  3
ACAD_XREC_ROUNDTRIP
360
41A
  0
DICTIONARY
  5
41D
330
31
100
AcDbDictionary
280
     1
281
     1
  3
ACAD_XREC_ROUNDTRIP
360
41E
  0
DICTIONARY
  5
41B
330
30
100
AcDbDictionary
280
     1
281
     1
  3
ACAD_XREC_ROUNDTRIP
360
41C
  0
DICTIONARY
  5
41F
330
32
100
AcDbDictionary
280
     1
281
     1
  3
ACAD_XREC_ROUNDTRIP
360
420
  0
DICTIONARY
  5
427
330
36
100
AcDbDictionary
280
     1
281
     1
  3
ACAD_XREC_ROUNDTRIP
360
428
  0
DICTIONARY
  5
42F
330
3A
100
AcDbDictionary
280
     1
281
     1
  3
ACAD_XREC_ROUNDTRIP
360
430
  0
DICTIONARY
  5
423
330
34
100
AcDbDictionary
280
     1
281
     1
  3
ACAD_XREC_ROUNDTRIP
360
424
  0
DICTIONARY
  5
425
330
35
100
AcDbDictionary
280
     1
281
     1
  3
ACAD_XREC_ROUNDTRIP
360
426
  0
DICTIONARY
  5
42D
330
39
100
AcDbDictionary
280
     1
281
     1
  3
ACAD_XREC_ROUNDTRIP
360
42E
  0
DICTIONARY
  5
411
330
2B
100
AcDbDictionary
280
     1
281
     1
  3
ACAD_XREC_ROUNDTRIP
360
412
  0
DICTIONARY
  5
413
330
2C
100
AcDbDictionary
280
     1
281
     1
  3
ACAD_XREC_ROUNDTRIP
360
414
  0
DICTIONARY
  5
415
330
2D
100
AcDbDictionary
280
     1
281
     1
  3
ACAD_XREC_ROUNDTRIP
360
416
  0
DICTIONARY
  5
417
330
2E
100
AcDbDictionary
280
     1
281
     1
  3
ACAD_XREC_ROUNDTRIP
360
418
  0
DICTIONARY
  5
42B
330
38
100
AcDbDictionary
280
     1
281
     1
  3
ACAD_XREC_ROUNDTRIP
360
42C
  0
DICTIONARY
  5
421
330
33
100
AcDbDictionary
280
     1
281
     1
  3
ACAD_XREC_ROUNDTRIP
360
422
  0
DICTIONARY
  5
429
330
37
100
AcDbDictionary
280
     1
281
     1
  3
ACAD_XREC_ROUNDTRIP
360
42A
  0
XRECORD
  5
434
102
{ACAD_REACTORS
330
433
102
}
330
433
100
AcDbXrecord
280
     1
102
MATERIAL
148
0.0
149
0.0
149
0.0
 93
        0
 94
      127
282
     0
 72
     1
 77
     1
171
     1
175
     1
179
     1
273
     0
  0
XRECORD
  5
432
102
{ACAD_REACTORS
330
431
102
}
330
431
100
AcDbXrecord
280
     1
102
MATERIAL
148
0.0
149
0.0
149
0.0
 93
        0
 94
      127
282
     0
 72
     1
 77
     1
171
     1
175
     1
179
     1
273
     0
  0
XRECORD
  5
436
102
{ACAD_REACTORS
330
435
102
}
330
435
100
AcDbXrecord
280
     1
102
MATERIAL
148
0.0
149
0.0
149
0.0
 93
        0
 94
      127
282
     0
 72
     1
 77
     1
171
     1
175
     1
179
     1
273
     0
  0
XRECORD
  5
41A
102
{ACAD_REACTORS
330
419
102
}
330
419
100
AcDbXrecord
280
     1
102
RTVSPropertyOp0
 70
     1
102
RTVSPropertyOp1
 70
     1
102
RTVSPropertyOp2
 70
     1
102
RTVSPropertyOp3
 70
     1
102
RTVSPropertyOp4
 70
     1
102
RTVSPropertyOp5
 70
     1
102
RTVSPropertyOp6
 70
     1
102
RTVSPropertyOp7
 70
     1
102
RTVSPropertyOp8
 70
     1
102
RTVSPropertyOp9
 70
     1
102
RTVSPropertyOp10
 70
     1
102
RTVSPropertyOp11
 70
     1
102
RTVSPropertyOp12
 70
     1
102
RTVSPropertyOp13
 70
     1
102
RTVSPropertyOp14
 70
     1
102
RTVSPropertyOp15
 70
     1
102
RTVSPropertyOp16
 70
     1
102
RTVSPropertyOp17
 70
     1
102
RTVSPropertyOp18
 70
     1
102
RTVSPropertyOp19
 70
     1
102
RTVSPropertyOp20
 70
     1
102
RTVSPropertyOp21
 70
     1
102
RTVSPropertyOp22
 70
     1
102
RTVSPropertyOp23
 70
     1
102
RTVSPropertyOp24
 70
     1
102
RTVSPropertyOp25
 70
     1
102
RTVSPropertyOp26
 70
     1
102
RTVSPropertyOp27
 70
     1
102
RTVSPropertyOp28
 70
     1
102
RTVSPropertyOp29
 70
     1
102
RTVSPropertyOp30
 70
     1
102
RTVSPropertyOp31
 70
     1
102
RTVSPropertyOp32
 70
     1
  0
XRECORD
  5
41E
102
{ACAD_REACTORS
330
41D
102
}
330
41D
100
AcDbXrecord
280
     1
102
RTVSPropertyOp0
 70
     1
102
RTVSPropertyOp1
 70
     1
102
RTVSPropertyOp2
 70
     1
102
RTVSPropertyOp3
 70
     1
102
RTVSPropertyOp4
 70
     1
102
RTVSPropertyOp5
 70
     1
102
RTVSPropertyOp6
 70
     1
102
RTVSPropertyOp7
 70
     1
102
RTVSPropertyOp8
 70
     1
102
RTVSPropertyOp9
 70
     1
102
RTVSPropertyOp10
 70
     1
102
RTVSPropertyOp11
 70
     1
102
RTVSPropertyOp12
 70
     1
102
RTVSPropertyOp13
 70
     1
102
RTVSPropertyOp14
 70
     1
102
RTVSPropertyOp15
 70
     1
102
RTVSPropertyOp16
 70
     1
102
RTVSPropertyOp17
 70
     1
102
RTVSPropertyOp18
 70
     1
102
RTVSPropertyOp19
 70
     1
102
RTVSPropertyOp20
 70
     1
102
RTVSPropertyOp21
 70
     1
102
RTVSPropertyOp22
 70
     1
102
RTVSPropertyOp23
 70
     1
102
RTVSPropertyOp24
 70
     1
102
RTVSPropertyOp25
 70
     1
102
RTVSPropertyOp26
 70
     1
102
RTVSPropertyOp27
 70
     1
102
RTVSPropertyOp28
 70
     1
102
RTVSPropertyOp29
 70
     1
102
RTVSPropertyOp30
 70
     1
102
RTVSPropertyOp31
 70
     1
102
RTVSPropertyOp32
 70
     1
  0
XRECORD
  5
41C
102
{ACAD_REACTORS
330
41B
102
}
330
41B
100
AcDbXrecord
280
     1
102
RTVSPropertyOp0
 70
     1
102
RTVSPropertyOp1
 70
     1
102
RTVSPropertyOp2
 70
     1
102
RTVSPropertyOp3
 70
     1
102
RTVSPropertyOp4
 70
     1
102
RTVSPropertyOp5
 70
     1
102
RTVSPropertyOp6
 70
     1
102
RTVSPropertyOp7
 70
     1
102
RTVSPropertyOp8
 70
     1
102
RTVSPropertyOp9
 70
     1
102
RTVSPropertyOp10
 70
     1
102
RTVSPropertyOp11
 70
     1
102
RTVSPropertyOp12
 70
     1
102
RTVSPropertyOp13
 70
     1
102
RTVSPropertyOp14
 70
     1
102
RTVSPropertyOp15
 70
     1
102
RTVSPropertyOp16
 70
     1
102
RTVSPropertyOp17
 70
     1
102
RTVSPropertyOp18
 70
     1
102
RTVSPropertyOp19
 70
     1
102
RTVSPropertyOp20
 70
     1
102
RTVSPropertyOp21
 70
     1
102
RTVSPropertyOp22
 70
     1
102
RTVSPropertyOp23
 70
     1
102
RTVSPropertyOp24
 70
     1
102
RTVSPropertyOp25
 70
     1
102
RTVSPropertyOp26
 70
     1
102
RTVSPropertyOp27
 70
     1
102
RTVSPropertyOp28
 70
     1
102
RTVSPropertyOp29
 70
     1
102
RTVSPropertyOp30
 70
     1
102
RTVSPropertyOp31
 70
     1
102
RTVSPropertyOp32
 70
     1
  0
XRECORD
  5
420
102
{ACAD_REACTORS
330
41F
102
}
330
41F
100
AcDbXrecord
280
     1
102
RTVSPropertyOp0
 70
     1
102
RTVSPropertyOp1
 70
     1
102
RTVSPropertyOp2
 70
     1
102
RTVSPropertyOp3
 70
     1
102
RTVSPropertyOp4
 70
     1
102
RTVSPropertyOp5
 70
     1
102
RTVSPropertyOp6
 70
     1
102
RTVSPropertyOp7
 70
     1
102
RTVSPropertyOp8
 70
     1
102
RTVSPropertyOp9
 70
     1
102
RTVSPropertyOp10
 70
     1
102
RTVSPropertyOp11
 70
     1
102
RTVSPropertyOp12
 70
     1
102
RTVSPropertyOp13
 70
     1
102
RTVSPropertyOp14
 70
     1
102
RTVSPropertyOp15
 70
     1
102
RTVSPropertyOp16
 70
     1
102
RTVSPropertyOp17
 70
     1
102
RTVSPropertyOp18
 70
     1
102
RTVSPropertyOp19
 70
     1
102
RTVSPropertyOp20
 70
     1
102
RTVSPropertyOp21
 70
     1
102
RTVSPropertyOp22
 70
     1
102
RTVSPropertyOp23
 70
     1
102
RTVSPropertyOp24
 70
     1
102
RTVSPropertyOp25
 70
     1
102
RTVSPropertyOp26
 70
     1
102
RTVSPropertyOp27
 70
     1
102
RTVSPropertyOp28
 70
     1
102
RTVSPropertyOp29
 70
     1
102
RTVSPropertyOp30
 70
     1
102
RTVSPropertyOp31
 70
     1
102
RTVSPropertyOp32
 70
     1
  0
XRECORD
  5
428
102
{ACAD_REACTORS
330
427
102
}
330
427
100
AcDbXrecord
280
     1
102
RTVSPropertyOp0
 70
     1
102
RTVSPropertyOp1
 70
     1
102
RTVSPropertyOp2
 70
     1
102
RTVSPropertyOp3
 70
     1
102
RTVSPropertyOp4
 70
     1
102
RTVSPropertyOp5
 70
     1
102
RTVSPropertyOp6
 70
     1
102
RTVSPropertyOp7
 70
     1
102
RTVSPropertyOp8
 70
     1
102
RTVSPropertyOp9
 70
     1
102
RTVSPropertyOp10
 70
     1
102
RTVSPropertyOp11
 70
     1
102
RTVSPropertyOp12
 70
     1
102
RTVSPropertyOp13
 70
     1
102
RTVSPropertyOp14
 70
     1
102
RTVSPropertyOp15
 70
     1
102
RTVSPropertyOp16
 70
     1
102
RTVSPropertyOp17
 70
     1
102
RTVSPropertyOp18
 70
     1
102
RTVSPropertyOp19
 70
     1
102
RTVSPropertyOp20
 70
     1
102
RTVSPropertyOp21
 70
     1
102
RTVSPropertyOp22
 70
     1
102
RTVSPropertyOp23
 70
     1
102
RTVSPropertyOp24
 70
     1
102
RTVSPropertyOp25
 70
     1
102
RTVSPropertyOp26
 70
     1
102
RTVSPropertyOp27
 70
     1
102
RTVSPropertyOp28
 70
     1
102
RTVSPropertyOp29
 70
     1
102
RTVSPropertyOp30
 70
     1
102
RTVSPropertyOp31
 70
     1
102
RTVSPropertyOp32
 70
     1
  0
XRECORD
  5
430
102
{ACAD_REACTORS
330
42F
102
}
330
42F
100
AcDbXrecord
280
     1
102
RTVSPropertyOp0
 70
     1
102
RTVSPropertyOp1
 70
     1
102
RTVSPropertyOp2
 70
     1
102
RTVSPropertyOp3
 70
     1
102
RTVSPropertyOp4
 70
     1
102
RTVSPropertyOp5
 70
     1
102
RTVSPropertyOp6
 70
     1
102
RTVSPropertyOp7
 70
     1
102
RTVSPropertyOp8
 70
     1
102
RTVSPropertyOp9
 70
     1
102
RTVSPropertyOp10
 70
     1
102
RTVSPropertyOp11
 70
     1
102
RTVSPropertyOp12
 70
     1
102
RTVSPropertyOp13
 70
     1
102
RTVSPropertyOp14
 70
     1
102
RTVSPropertyOp15
 70
     1
102
RTVSPropertyOp16
 70
     1
102
RTVSPropertyOp17
 70
     1
102
RTVSPropertyOp18
 70
     1
102
RTVSPropertyOp19
 70
     1
102
RTVSPropertyOp20
 70
     1
102
RTVSPropertyOp21
 70
     1
102
RTVSPropertyOp22
 70
     1
102
RTVSPropertyOp23
 70
     1
102
RTVSPropertyOp24
 70
     1
102
RTVSPropertyOp25
 70
     1
102
RTVSPropertyOp26
 70
     1
102
RTVSPropertyOp27
 70
     1
102
RTVSPropertyOp28
 70
     1
102
RTVSPropertyOp29
 70
     1
102
RTVSPropertyOp30
 70
     1
102
RTVSPropertyOp31
 70
     1
102
RTVSPropertyOp32
 70
     1
  0
XRECORD
  5
424
102
{ACAD_REACTORS
330
423
102
}
330
423
100
AcDbXrecord
280
     1
102
RTVSPropertyOp0
 70
     1
102
RTVSPropertyOp1
 70
     1
102
RTVSPropertyOp2
 70
     1
102
RTVSPropertyOp3
 70
     1
102
RTVSPropertyOp4
 70
     1
102
RTVSPropertyOp5
 70
     1
102
RTVSPropertyOp6
 70
     1
102
RTVSPropertyOp7
 70
     1
102
RTVSPropertyOp8
 70
     1
102
RTVSPropertyOp9
 70
     1
102
RTVSPropertyOp10
 70
     1
102
RTVSPropertyOp11
 70
     1
102
RTVSPropertyOp12
 70
     1
102
RTVSPropertyOp13
 70
     1
102
RTVSPropertyOp14
 70
     1
102
RTVSPropertyOp15
 70
     1
102
RTVSPropertyOp16
 70
     1
102
RTVSPropertyOp17
 70
     1
102
RTVSPropertyOp18
 70
     1
102
RTVSPropertyOp19
 70
     1
102
RTVSPropertyOp20
 70
     1
102
RTVSPropertyOp21
 70
     1
102
RTVSPropertyOp22
 70
     1
102
RTVSPropertyOp23
 70
     1
102
RTVSPropertyOp24
 70
     1
102
RTVSPropertyOp25
 70
     1
102
RTVSPropertyOp26
 70
     1
102
RTVSPropertyOp27
 70
     1
102
RTVSPropertyOp28
 70
     1
102
RTVSPropertyOp29
 70
     1
102
RTVSPropertyOp30
 70
     1
102
RTVSPropertyOp31
 70
     1
102
RTVSPropertyOp32
 70
     1
  0
XRECORD
  5
426
102
{ACAD_REACTORS
330
425
102
}
330
425
100
AcDbXrecord
280
     1
102
RTVSPropertyOp0
 70
     1
102
RTVSPropertyOp1
 70
     1
102
RTVSPropertyOp2
 70
     1
102
RTVSPropertyOp3
 70
     1
102
RTVSPropertyOp4
 70
     1
102
RTVSPropertyOp5
 70
     1
102
RTVSPropertyOp6
 70
     1
102
RTVSPropertyOp7
 70
     1
102
RTVSPropertyOp8
 70
     1
102
RTVSPropertyOp9
 70
     1
102
RTVSPropertyOp10
 70
     1
102
RTVSPropertyOp11
 70
     1
102
RTVSPropertyOp12
 70
     1
102
RTVSPropertyOp13
 70
     1
102
RTVSPropertyOp14
 70
     1
102
RTVSPropertyOp15
 70
     1
102
RTVSPropertyOp16
 70
     1
102
RTVSPropertyOp17
 70
     1
102
RTVSPropertyOp18
 70
     1
102
RTVSPropertyOp19
 70
     1
102
RTVSPropertyOp20
 70
     1
102
RTVSPropertyOp21
 70
     1
102
RTVSPropertyOp22
 70
     1
102
RTVSPropertyOp23
 70
     1
102
RTVSPropertyOp24
 70
     1
102
RTVSPropertyOp25
 70
     1
102
RTVSPropertyOp26
 70
     1
102
RTVSPropertyOp27
 70
     1
102
RTVSPropertyOp28
 70
     1
102
RTVSPropertyOp29
 70
     1
102
RTVSPropertyOp30
 70
     1
102
RTVSPropertyOp31
 70
     1
102
RTVSPropertyOp32
 70
     1
  0
XRECORD
  5
42E
102
{ACAD_REACTORS
330
42D
102
}
330
42D
100
AcDbXrecord
280
     1
102
RTVSPropertyOp0
 70
     1
102
RTVSPropertyOp1
 70
     1
102
RTVSPropertyOp2
 70
     1
102
RTVSPropertyOp3
 70
     1
102
RTVSPropertyOp4
 70
     1
102
RTVSPropertyOp5
 70
     1
102
RTVSPropertyOp6
 70
     1
102
RTVSPropertyOp7
 70
     1
102
RTVSPropertyOp8
 70
     1
102
RTVSPropertyOp9
 70
     1
102
RTVSPropertyOp10
 70
     1
102
RTVSPropertyOp11
 70
     1
102
RTVSPropertyOp12
 70
     1
102
RTVSPropertyOp13
 70
     1
102
RTVSPropertyOp14
 70
     1
102
RTVSPropertyOp15
 70
     1
102
RTVSPropertyOp16
 70
     1
102
RTVSPropertyOp17
 70
     1
102
RTVSPropertyOp18
 70
     1
102
RTVSPropertyOp19
 70
     1
102
RTVSPropertyOp20
 70
     1
102
RTVSPropertyOp21
 70
     1
102
RTVSPropertyOp22
 70
     1
102
RTVSPropertyOp23
 70
     1
102
RTVSPropertyOp24
 70
     1
102
RTVSPropertyOp25
 70
     1
102
RTVSPropertyOp26
 70
     1
102
RTVSPropertyOp27
 70
     1
102
RTVSPropertyOp28
 70
     1
102
RTVSPropertyOp29
 70
     1
102
RTVSPropertyOp30
 70
     1
102
RTVSPropertyOp31
 70
     1
102
RTVSPropertyOp32
 70
     1
  0
XRECORD
  5
412
102
{ACAD_REACTORS
330
411
102
}
330
411
100
AcDbXrecord
280
     1
102
RTVSPropertyOp0
 70
     1
102
RTVSPropertyOp1
 70
     1
102
RTVSPropertyOp2
 70
     1
102
RTVSPropertyOp3
 70
     1
102
RTVSPropertyOp4
 70
     1
102
RTVSPropertyOp5
 70
     1
102
RTVSPropertyOp6
 70
     1
102
RTVSPropertyOp7
 70
     1
102
RTVSPropertyOp8
 70
     1
102
RTVSPropertyOp9
 70
     1
102
RTVSPropertyOp10
 70
     1
102
RTVSPropertyOp11
 70
     1
102
RTVSPropertyOp12
 70
     1
102
RTVSPropertyOp13
 70
     1
102
RTVSPropertyOp14
 70
     1
102
RTVSPropertyOp15
 70
     1
102
RTVSPropertyOp16
 70
     1
102
RTVSPropertyOp17
 70
     1
102
RTVSPropertyOp18
 70
     1
102
RTVSPropertyOp19
 70
     1
102
RTVSPropertyOp20
 70
     1
102
RTVSPropertyOp21
 70
     1
102
RTVSPropertyOp22
 70
     1
102
RTVSPropertyOp23
 70
     1
102
RTVSPropertyOp24
 70
     1
102
RTVSPropertyOp25
 70
     1
102
RTVSPropertyOp26
 70
     1
102
RTVSPropertyOp27
 70
     1
102
RTVSPropertyOp28
 70
     1
102
RTVSPropertyOp29
 70
     1
102
RTVSPropertyOp30
 70
     1
102
RTVSPropertyOp31
 70
     1
102
RTVSPropertyOp32
 70
     1
  0
XRECORD
  5
414
102
{ACAD_REACTORS
330
413
102
}
330
413
100
AcDbXrecord
280
     1
102
RTVSPropertyOp0
 70
     1
102
RTVSPropertyOp1
 70
     1
102
RTVSPropertyOp2
 70
     1
102
RTVSPropertyOp3
 70
     1
102
RTVSPropertyOp4
 70
     1
102
RTVSPropertyOp5
 70
     1
102
RTVSPropertyOp6
 70
     1
102
RTVSPropertyOp7
 70
     1
102
RTVSPropertyOp8
 70
     1
102
RTVSPropertyOp9
 70
     1
102
RTVSPropertyOp10
 70
     1
102
RTVSPropertyOp11
 70
     1
102
RTVSPropertyOp12
 70
     1
102
RTVSPropertyOp13
 70
     1
102
RTVSPropertyOp14
 70
     1
102
RTVSPropertyOp15
 70
     1
102
RTVSPropertyOp16
 70
     1
102
RTVSPropertyOp17
 70
     1
102
RTVSPropertyOp18
 70
     1
102
RTVSPropertyOp19
 70
     1
102
RTVSPropertyOp20
 70
     1
102
RTVSPropertyOp21
 70
     1
102
RTVSPropertyOp22
 70
     1
102
RTVSPropertyOp23
 70
     1
102
RTVSPropertyOp24
 70
     1
102
RTVSPropertyOp25
 70
     1
102
RTVSPropertyOp26
 70
     1
102
RTVSPropertyOp27
 70
     1
102
RTVSPropertyOp28
 70
     1
102
RTVSPropertyOp29
 70
     1
102
RTVSPropertyOp30
 70
     1
102
RTVSPropertyOp31
 70
     1
102
RTVSPropertyOp32
 70
     1
  0
XRECORD
  5
416
102
{ACAD_REACTORS
330
415
102
}
330
415
100
AcDbXrecord
280
     1
102
RTVSPropertyOp0
 70
     1
102
RTVSPropertyOp1
 70
     1
102
RTVSPropertyOp2
 70
     1
102
RTVSPropertyOp3
 70
     1
102
RTVSPropertyOp4
 70
     1
102
RTVSPropertyOp5
 70
     1
102
RTVSPropertyOp6
 70
     1
102
RTVSPropertyOp7
 70
     1
102
RTVSPropertyOp8
 70
     1
102
RTVSPropertyOp9
 70
     1
102
RTVSPropertyOp10
 70
     1
102
RTVSPropertyOp11
 70
     1
102
RTVSPropertyOp12
 70
     1
102
RTVSPropertyOp13
 70
     1
102
RTVSPropertyOp14
 70
     1
102
RTVSPropertyOp15
 70
     1
102
RTVSPropertyOp16
 70
     1
102
RTVSPropertyOp17
 70
     1
102
RTVSPropertyOp18
 70
     1
102
RTVSPropertyOp19
 70
     1
102
RTVSPropertyOp20
 70
     1
102
RTVSPropertyOp21
 70
     1
102
RTVSPropertyOp22
 70
     1
102
RTVSPropertyOp23
 70
     1
102
RTVSPropertyOp24
 70
     1
102
RTVSPropertyOp25
 70
     1
102
RTVSPropertyOp26
 70
     1
102
RTVSPropertyOp27
 70
     1
102
RTVSPropertyOp28
 70
     1
102
RTVSPropertyOp29
 70
     1
102
RTVSPropertyOp30
 70
     1
102
RTVSPropertyOp31
 70
     1
102
RTVSPropertyOp32
 70
     1
  0
XRECORD
  5
418
102
{ACAD_REACTORS
330
417
102
}
330
417
100
AcDbXrecord
280
     1
102
RTVSPropertyOp0
 70
     1
102
RTVSPropertyOp1
 70
     1
102
RTVSPropertyOp2
 70
     1
102
RTVSPropertyOp3
 70
     1
102
RTVSPropertyOp4
 70
     1
102
RTVSPropertyOp5
 70
     1
102
RTVSPropertyOp6
 70
     1
102
RTVSPropertyOp7
 70
     1
102
RTVSPropertyOp8
 70
     1
102
RTVSPropertyOp9
 70
     1
102
RTVSPropertyOp10
 70
     1
102
RTVSPropertyOp11
 70
     1
102
RTVSPropertyOp12
 70
     1
102
RTVSPropertyOp13
 70
     1
102
RTVSPropertyOp14
 70
     1
102
RTVSPropertyOp15
 70
     1
102
RTVSPropertyOp16
 70
     1
102
RTVSPropertyOp17
 70
     1
102
RTVSPropertyOp18
 70
     1
102
RTVSPropertyOp19
 70
     1
102
RTVSPropertyOp20
 70
     1
102
RTVSPropertyOp21
 70
     1
102
RTVSPropertyOp22
 70
     1
102
RTVSPropertyOp23
 70
     1
102
RTVSPropertyOp24
 70
     1
102
RTVSPropertyOp25
 70
     1
102
RTVSPropertyOp26
 70
     1
102
RTVSPropertyOp27
 70
     1
102
RTVSPropertyOp28
 70
     1
102
RTVSPropertyOp29
 70
     1
102
RTVSPropertyOp30
 70
     1
102
RTVSPropertyOp31
 70
     1
102
RTVSPropertyOp32
 70
     1
  0
XRECORD
  5
42C
102
{ACAD_REACTORS
330
42B
102
}
330
42B
100
AcDbXrecord
280
     1
102
RTVSPropertyOp0
 70
     1
102
RTVSPropertyOp1
 70
     1
102
RTVSPropertyOp2
 70
     1
102
RTVSPropertyOp3
 70
     1
102
RTVSPropertyOp4
 70
     1
102
RTVSPropertyOp5
 70
     1
102
RTVSPropertyOp6
 70
     1
102
RTVSPropertyOp7
 70
     1
102
RTVSPropertyOp8
 70
     1
102
RTVSPropertyOp9
 70
     1
102
RTVSPropertyOp10
 70
     1
102
RTVSPropertyOp11
 70
     1
102
RTVSPropertyOp12
 70
     1
102
RTVSPropertyOp13
 70
     1
102
RTVSPropertyOp14
 70
     1
102
RTVSPropertyOp15
 70
     1
102
RTVSPropertyOp16
 70
     1
102
RTVSPropertyOp17
 70
     1
102
RTVSPropertyOp18
 70
     1
102
RTVSPropertyOp19
 70
     1
102
RTVSPropertyOp20
 70
     1
102
RTVSPropertyOp21
 70
     1
102
RTVSPropertyOp22
 70
     1
102
RTVSPropertyOp23
 70
     1
102
RTVSPropertyOp24
 70
     1
102
RTVSPropertyOp25
 70
     1
102
RTVSPropertyOp26
 70
     1
102
RTVSPropertyOp27
 70
     1
102
RTVSPropertyOp28
 70
     1
102
RTVSPropertyOp29
 70
     1
102
RTVSPropertyOp30
 70
     1
102
RTVSPropertyOp31
 70
     1
102
RTVSPropertyOp32
 70
     1
  0
XRECORD
  5
422
102
{ACAD_REACTORS
330
421
102
}
330
421
100
AcDbXrecord
280
     1
102
RTVSPropertyOp0
 70
     1
102
RTVSPropertyOp1
 70
     1
102
RTVSPropertyOp2
 70
     1
102
RTVSPropertyOp3
 70
     1
102
RTVSPropertyOp4
 70
     1
102
RTVSPropertyOp5
 70
     1
102
RTVSPropertyOp6
 70
     1
102
RTVSPropertyOp7
 70
     1
102
RTVSPropertyOp8
 70
     1
102
RTVSPropertyOp9
 70
     1
102
RTVSPropertyOp10
 70
     1
102
RTVSPropertyOp11
 70
     1
102
RTVSPropertyOp12
 70
     1
102
RTVSPropertyOp13
 70
     1
102
RTVSPropertyOp14
 70
     1
102
RTVSPropertyOp15
 70
     1
102
RTVSPropertyOp16
 70
     1
102
RTVSPropertyOp17
 70
     1
102
RTVSPropertyOp18
 70
     1
102
RTVSPropertyOp19
 70
     1
102
RTVSPropertyOp20
 70
     1
102
RTVSPropertyOp21
 70
     1
102
RTVSPropertyOp22
 70
     1
102
RTVSPropertyOp23
 70
     1
102
RTVSPropertyOp24
 70
     1
102
RTVSPropertyOp25
 70
     1
102
RTVSPropertyOp26
 70
     1
102
RTVSPropertyOp27
 70
     1
102
RTVSPropertyOp28
 70
     1
102
RTVSPropertyOp29
 70
     1
102
RTVSPropertyOp30
 70
     1
102
RTVSPropertyOp31
 70
     1
102
RTVSPropertyOp32
 70
     1
  0
XRECORD
  5
42A
102
{ACAD_REACTORS
330
429
102
}
330
429
100
AcDbXrecord
280
     1
102
RTVSPropertyOp0
 70
     1
102
RTVSPropertyOp1
 70
     1
102
RTVSPropertyOp2
 70
     1
102
RTVSPropertyOp3
 70
     1
102
RTVSPropertyOp4
 70
     1
102
RTVSPropertyOp5
 70
     1
102
RTVSPropertyOp6
 70
     1
102
RTVSPropertyOp7
 70
     1
102
RTVSPropertyOp8
 70
     1
102
RTVSPropertyOp9
 70
     1
102
RTVSPropertyOp10
 70
     1
102
RTVSPropertyOp11
 70
     1
102
RTVSPropertyOp12
 70
     1
102
RTVSPropertyOp13
 70
     1
102
RTVSPropertyOp14
 70
     1
102
RTVSPropertyOp15
 70
     1
102
RTVSPropertyOp16
 70
     1
102
RTVSPropertyOp17
 70
     1
102
RTVSPropertyOp18
 70
     1
102
RTVSPropertyOp19
 70
     1
102
RTVSPropertyOp20
 70
     1
102
RTVSPropertyOp21
 70
     1
102
RTVSPropertyOp22
 70
     1
102
RTVSPropertyOp23
 70
     1
102
RTVSPropertyOp24
 70
     1
102
RTVSPropertyOp25
 70
     1
102
RTVSPropertyOp26
 70
     1
102
RTVSPropertyOp27
 70
     1
102
RTVSPropertyOp28
 70
     1
102
RTVSPropertyOp29
 70
     1
102
RTVSPropertyOp30
 70
     1
102
RTVSPropertyOp31
 70
     1
102
RTVSPropertyOp32
 70
     1
  0
ENDSEC
  0
EOF
